アットウィキロゴ
ICHIDAIJI
ポルカドットスティングレイ

BASIC

Level: 3
BPM: 142
Notes: 133

1
口口口口 |----|
口口口口 |----|
口口口口 |----|
口口口口 |----|
2
口口口口 |①---|
口口口口 |②---|
口口口口 |③---|
①②③④ |④---|
3
口口口口 |①---|
口口口口 |----|
口①②口 |②---|
口口口口 |----|
4
口口口口 |①---|
口①②口 |----|
口口口口 |②---|
口口口口 |----|
5
口口口口 |①---|
口口口口 |----|
口①②口 |②---|
口口口口 |----|
6
口口口口 |①---|
口①②③ |----|
口口口口 |②---|
口口口口 |③---|
7
口口口口 |①---|
口①②口 |----|
口口口口 |②---|
口口口口 |----|
8
口口口口 |①---|
口口口口 |----|
口①②口 |②---|
口口口口 |----|
9
口口口口 |①---|
口口口口 |----|
口口口口 |②---|
口①②口 |----|
10
口口口口 |①---|
口口口口 |----|
口①②口 |②---|
口口口口 |----|
11
口口口口 |①---|
口①①口 |----|
口口口口 |----|
口口口口 |----|
12
口口口口 |①---|
口口口口 |----|
口①①口 |----|
口口口口 |----|
13
口口口口 |①---|
①口口口 |----|
口口口口 |----|
口口口口 |----|
14
口口口口 |①---|
口①口口 |----|
口口口口 |----|
口口口口 |----|
15
口口口口 |①---|
口口①口 |----|
口口口口 |----|
口口口口 |----|
16
口口口口 |①---|
口口口① |----|
口口口口 |----|
口口口口 |----|
17
口口口口 |①---|
口口口口 |----|
口口口① |----|
口口口口 |----|
18
口口口口 |①---|
口口口口 |----|
口口①口 |----|
口口口口 |----|
19
口口口口 |①---|
口①口口 |----|
口口口口 |----|
口口口口 |----|
20
口口口口 |①---|
口口口口 |----|
口①口口 |----|
口口口口 |----|
21
口口口口 |①---|
口口口口 |----|
口口口口 |----|
口①口口 |----|
22
口口口口 |①---|
口口口口 |----|
口口口口 |----|
口口①口 |----|
23
口口口口 |①---|
口①①口 |----|
口口口口 |----|
口口口口 |----|
24
口口口口 |①---|
口口口口 |----|
口①①口 |----|
口口口口 |----|
25
口口口口 |①---|
口口口① |----|
口口口口 |----|
口口口口 |----|
26
口口口口 |①---|
口口①口 |----|
口口口口 |----|
口口口口 |----|
27
口口口口 |①---|
口①口口 |----|
口口口口 |----|
口口口口 |----|
28
口口口口 |①---|
①口口口 |----|
口口口口 |----|
口口口口 |----|
29
口口口口 |①---|
口口口口 |----|
①口口口 |----|
口口口口 |----|
30
口口口口 |①---|
口口口口 |----|
口①口口 |----|
口口口口 |----|
31
口口口口 |①---|
口口①口 |----|
口②口口 |②---|
口口口口 |----|
32
口口口口 |①---|
口口①① |----|
口②②口 |②---|
口口口口 |----|
33
口口口口 |①---|
口①①口 |----|
口②②口 |②---|
口口口口 |----|
34
口口口口 |①---|
①①口口 |----|
口②②口 |②---|
口口口口 |----|
35
口口口口 |①---|
口①①口 |----|
口②②口 |②---|
口口口口 |----|
36
口口口口 |①---|
口口①① |----|
口②②口 |②---|
口口口口 |----|
37
口口口口 |①---|
口①①口 |----|
口②②口 |②---|
口口口口 |----|
38
口口口口 |①---|
①口口① |----|
口口口口 |----|
口口口口 |----|
39
口口口口 |----|
口①①口 |①---|
口口口口 |----|
口口口口 |----|
40
口口②① |①---|
口③口口 |----|
口口口口 |②---|
口口口口 |③---|
41
①②口口 |①---|
口口③口 |----|
口口口口 |②---|
口口口口 |③---|
42
口口口① |①---|
口②口口 |----|
口口③口 |②---|
口口口口 |③---|
43
口口口口 |----|
③②①口 |①---|
口口口口 |②---|
口口口口 |③---|
44
①②口口 |①---|
口口③口 |----|
口口口口 |②---|
口口口口 |③---|
45
口口②① |①---|
口③口口 |----|
口口口口 |②---|
口口口口 |③---|
46
①②③口 |①---|
口口口口 |----|
口口口口 |②---|
口口口口 |③---|
47
口口口口 |①---|
口①②口 |②---|
口③④口 |③---|
口口口口 |④---|
48
口口口口 |①---|
口②口① |----|
口口口口 |②---|
口口口口 |----|
49
口口口口 |①---|
口口口口 |----|
口②口① |②---|
口口口口 |----|
50
口口口口 |①---|
①口②口 |----|
口口口口 |②---|
口口口口 |----|
51
口口口口 |①---|
口口口口 |----|
①③②口 |②---|
口口口口 |③---|
52
口口口口 |①---|
口②口① |----|
口口口口 |②---|
口口口口 |----|
53
口口口口 |①---|
口口口口 |----|
口②口① |②---|
口口口口 |----|
54
口口口口 |①---|
①口②口 |----|
口口口口 |②---|
口口口口 |----|
55
口口口口 |①---|
口口口口 |----|
①口②口 |②---|
口口口口 |----|
56
口口口口 |①---|
口①口口 |----|
口口②口 |②---|
口口口口 |----|
57
口口口口 |①---|
口口口口 |----|
口口口口 |②---|
口①②口 |----|
58
口口口口 |①---|
口口口口 |----|
口口口口 |②---|
①口口② |----|
59
口口口口 |①---|
口口口口 |----|
①口口② |②---|
口口口口 |----|
60
口口口口 |①---|
①口口② |----|
口口口口 |②---|
口口口口 |----|
61
①口口② |①---|
口口口口 |----|
口口口口 |②---|
口口口口 |----|
62
口①②口 |①---|
口③③口 |----|
口口口口 |②---|
口口口口 |--③-|

accuracy: 99.5%
最終更新:2023年01月17日 10:31