アットウィキロゴ
ICHIDAIJI
ポルカドットスティングレイ

ADVANCED

Level: 6
BPM: 142
Notes: 397

1
口口口口 |----|
口口口口 |----|
口口口口 |----|
口口口口 |----|
2
①口口口 |①---|
②②口口 |②---|
③③③口 |③---|
④④④④ |④---|
3
②②①口 |①---|
口口口① |②---|
③③口口 |③---|
口口口口 |----|
4
口口①口 |①---|
口②口口 |②---|
口口③口 |③---|
口④口口 |④---|
5
口①②② |①---|
①口口口 |②---|
口口③③ |③---|
口口口口 |----|
6
口①口口 |①---|
口口②口 |②---|
③口口④ |③---|
口③④口 |④---|
7
口①②② |①---|
①口口口 |②---|
口口③③ |③---|
口口口口 |----|
8
口①口口 |①---|
口口②口 |②---|
口③口口 |③---|
口口④口 |④---|
9
②②①口 |①---|
口口口① |②---|
口口口口
口口口口

口口④④
口口口口
③③口口 |③---|
口口口口 |--④-|
10
口口口口 |----|
口①①口 |①---|
口口口口 |②---|
口②②口 |----|
11
口口口口 |①---|
④⑤口① |②---|
口口②口 |③---|
口③口口 |④-⑤-|
12
③③口① |①--②|
口口④口 |--③-|
口⑤②口 |--④-|
口口⑥口 |⑤-⑥-|
13
④口口口 |①--②|
①⑤③③ |--③-|
口口⑥口 |--④-|
口②口口 |⑤-⑥-|
14
③口②① |①-②-|
③口口口 |--③-|
口口口口 |----|
口口口口 |----|
15
④口口① |--①-|
④②口⑤ |②-③-|
口口⑥③ |④-⑤-|
口⑦口口 |⑥-⑦-|
16
③③①口 |①--②|
口口口④ |--③-|
口②⑤口 |--④-|
口⑥口口 |⑤-⑥-|
17
口口口③ |①--②|
⑦①④口 |--③-|
口⑤口口 |④-⑤-|
⑥口②口 |⑥-⑦-|
18
口④④口 |①-②-|
口①②③ |③-④-|
口口口口 |----|
口口口口 |----|
19
口①③① |①---|
口口③口 |----|
②口②口 |②---|
口口口口 |--③-|
20
口口口口 |--①-|
①口口口 |--②-|
①口②口 |----|
口③②③ |--③-|
21
③③口口 |--①-|
口口④① |②---|
口⑤②口 |③---|
口口口口 |④-⑤-|
22
口口①① |--①-|
②②口口 |--②-|
口口口口 |----|
口口口口 |----|
23
口口口口 |①---|
①⑥⑤④ |②---|
口②口口 |③-④-|
口口③口 |⑤-⑥-|
24
①口③③ |①--②|
口④口口 |--③-|
口②⑤口 |--④-|
口⑥口口 |⑤-⑥-|
25
口口口⑤ |①--②|
③④⑥① |--③-|
口⑦口口 |④-⑤-|
口口②口 |⑥-⑦-|
26
①②③④ |①-②-|
口口口口 |③-④-|
口口口口 |----|
口口口口 |----|
27
①口口④ |--①-|
⑤口②④ |②-③-|
③⑥口口 |④-⑤-|
口口⑦口 |⑥-⑦-|
28
口①③③ |①--②|
④口口口 |--③-|
口⑤②口 |--④-|
口口⑥口 |⑤-⑥-|
29
③口口口 |①--②|
口④①⑦ |--③-|
口口⑤口 |④-⑤-|
口②口⑥ |⑥-⑦-|
30
口④④口 |①-②-|
③②①口 |③-④-|
口口口口 |----|
口口口口 |----|
31
②口口① |--①-|
④口口③ |②-③-|
⑥口口⑤ |④-⑤-|
口口口口 |⑥---|
32
口口④④ |--①-|
口①口口 |②-③-|
⑤⑤②口 |④---|
口③口口 |⑤---|
33
①口④④ |①-②-|
口②口口 |③-④-|
口口③口 |--⑤-|
口⑤⑤口 |----|
34
④④口口 |--①-|
口口①口 |②-③-|
口②⑤⑤ |④---|
口口③口 |⑤---|
35
口④④口 |①-②-|
口⑦①口 |③-④-|
口②⑥口 |--⑤-|
③口口⑤ |⑥-⑦-|
36
④④口口 |--①-|
口口①口 |②-③-|
口②⑤⑤ |④---|
口口③口 |⑤---|
37
口④④口 |①-②-|
口口①口 |③-④-|
口②口口 |--⑤-|
③⑤⑤口 |----|
38
④口口① |--①-|
口⑤②口 |②-③-|
口③⑥口 |④-⑤-|
口口口⑦ |⑥-⑦-|
39
口口口口 |----|
①口②① |①---|
①③口① |--②-|
口口④口 |③-④-|
40
③口口口 |①-②-|
①①口② |--③-|
口口②口
口口口口

口口④口
口⑤口口
⑥口口口 |--④-|
口口口口 |⑤-⑥-|
41
口口口③ |①-②-|
②口①① |--③-|
口②口口
口口口口

口④口口
口口⑤口
口口口⑥ |--④-|
口口口口 |⑤-⑥-|
42
③口口口 |①-②-|
①①口② |--③-|
口口②口
口口口口

口口口④
⑤口口⑥
⑦口口口 |④-⑤-|
口口口口 |⑥-⑦-|
43
口口口口 |--①-|
④口⑥口 |②-③-|
口⑤③⑦ |④-⑤-|
口②①口 |⑥-⑦-|
44
①①口③ |①-②-|
口④口② |--③-|
⑤口②口 |--④-|
口⑥口口 |⑤-⑥-|
45
③口①① |①-②-|
②口④口 |--③-|
口②口⑤ |--④-|
口口⑥口 |⑤-⑥-|
46
①①口③ |①-②-|
口④口② |--③-|
⑤口②口 |--④-|
口⑥口口 |⑤-⑥-|
47
④②①③ |①-②-|
②⑤⑤① |③-④-|
口⑥⑥口 |⑤--⑥|
口⑦⑦口 |--⑦-|
48
②②①口 |①---|
口口口① |②---|
③③口口 |③---|
口口口口 |----|
49
口口①口 |①---|
口②口口 |②---|
口口③口 |③---|
口④口口 |④---|
50
口①②② |①---|
①口口口 |②---|
口口③③ |③---|
口口口口 |----|
51
口①口口 |①---|
口口②口 |②---|
③口口④ |③---|
口③④口 |④---|
52
口①②② |①---|
①口口口 |②---|
口口③③ |③---|
口口口口 |----|
53
口①口口 |①---|
口口②口 |②---|
口③口口 |③---|
口口④口 |④---|
54
②②①口 |①---|
口口口① |②---|
③③口口 |③---|
口口口口 |----|
55
口口①口 |①---|
口②口① |②---|
③口②口 |③---|
口③口④ |④---|
56
①口口② |①---|
①口口② |----|
口口口口 |②---|
口口口口 |----|
57
①①口口 |①---|
口②②口 |②---|
④口③③ |③---|
口口口口 |④---|
58
口④①④ |①---|
②③③① |②---|
口②口口 |③---|
口口口口 |--④-|
59
③口口口 |--①-|
①口①口 |--②-|
口②口② |----|
口口口口 |③---|
60
口口口① |①---|
口②口口 |②---|
口口口③ |③---|
口④口口 |④---|
61
口③①口 |①---|
③口口① |②---|
口②④口 |③---|
口口口口 |④---|
62
口口口口 |①---|
③①①③ |②---|
④口口④ |③--④|
⑤②②⑤ |--⑤-|

accuracy: 99.5%
最終更新:2023年01月17日 10:32