アットウィキロゴ
ICHIDAIJI
ポルカドットスティングレイ

EXTREME

Level: 8
BPM: 142
Notes: 620

1
口口口口 |----|
口口口口 |----|
口口口口 |----|
口口口口 |----|
2
④口口口 |①---|
③④口口 |②---|
②③④口 |③---|
①②③④ |④---|
3
口口③① |①②③-|
④口②口 |④-⑤-|
口口口口
口口⑤口

⑥⑥⑧口
口口口⑦
口口⑦口 |⑥--⑦|
口口口口 |--⑧-|
4
⑥⑥④⑦ |--①-|
①口口口 |②-③-|
⑤②⑤④ |④-⑤-|
口口③口 |⑥-⑦-|
5
口口口口 |①②③-|
①③口④ |④-⑤-|
口②口口
口⑤口口

口⑧⑥⑥
⑦口口口
口⑦口口 |⑥--⑦|
口口口口 |--⑧-|
6
口④口⑥ |--①-|
④口⑥① |②-③-|
口口②口 |④-⑤-|
⑤③⑦口 |⑥-⑦-|
7
①③口口 |①②③-|
口②口④ |④-⑤-|
口口口口
口⑤口口

口⑧⑥⑥
⑦口口口
口⑦口口 |⑥--⑦|
口口口口 |--⑧-|
8
⑦④⑥⑥ |--①-|
口口口① |②-③-|
④⑤②⑤ |④-⑤-|
口③口口 |⑥-⑦-|
9
口口口口 |①---|
口①①② |②-③-|
口口口口
口口③口

口④⑥口
④口口⑥
口⑤⑤口 |④--⑤|
口口口口 |--⑥-|
10
①④口④ |--①-|
口口②口 |②-③-|
③口口口 |④---|
⑤⑥口口 |⑤-⑥-|
11
口口②口 |①---|
口①③① |②-③-|
口口①口
口口口口

④④口口
④口口⑤
口口口口 |④---|
口口⑥口 |⑤-⑥-|
12
口口①① |①--②|
④③⑥③ |--③-|
②⑤口口 |--④-|
口②口口 |⑤-⑥-|
13
①①口口 |①--②|
④③⑥③ |--③-|
口⑤口② |--④-|
口口②口 |⑤-⑥-|
14
⑤①①④ |①-②-|
③口口③ |--③-|
口口口口 |④---|
口②②口 |⑤---|
15
口⑤⑥⑧ |①-②-|
⑤⑦④⑥ |③-④-|
⑦③口① |⑤-⑥-|
②口口口 |⑦-⑧-|
16
②②口口 |①--②|
④口口③ |--③-|
口⑤①口 |--④-|
口口⑥口 |⑤-⑥-|
17
口③①① |①--②|
口口④⑦ |--③-|
②⑤口口 |④-⑤-|
口②⑥口 |⑥-⑦-|
18
口口口⑤ |①-②-|
①④④口 |③-④-|
③口口② |⑤---|
⑥口口口 |⑥---|
19
口口①口 |①---|
口口口口 |②---|
②口①口
口口口口

⑤⑤⑤③
口④口口
口口口③ |③--④|
口口口口 |--⑤-|
20
口口口② |--①-|
③③③口 |②-③-|
口①①①
口口口口

④口口⑥
口口口口
⑤口口口 |--④-|
口口口口 |⑤-⑥-|
21
口口⑥口 |--①-|
⑦⑤④③ |②-③④|
口①⑧口 |⑤-⑥-|
口口②口 |⑦-⑧-|
22
①口口口 |--①-|
⑤口口口 |--②-|
口口④口 |--③-|
③口口② |④-⑤-|
23
口口口口 |①---|
口口①口 |②-③-|
口①③①
口口②口

口口⑦⑤
口口口口
④口口⑥ |④-⑤-|
④④口口 |⑥-⑦-|
24
口②口口 |①--②|
②⑤⑦口 |--③-|
④③⑥③ |--④-|
口口①① |⑤-⑥⑦|
25
④口②口 |①--②|
口⑥口② |--③-|
⑤③⑦③ |④-⑤-|
①①口口 |⑥-⑦-|
26
口②②⑤ |①-②-|
④口口③ |③-④-|
④口口③ |⑤---|
⑥①①口 |⑥---|
27
②口口⑧ |①-②-|
⑦③口① |③-④-|
⑤⑦④⑥ |⑤-⑥-|
口⑤⑥口 |⑦-⑧-|
28
口口⑥口 |①--②|
口⑤①口 |--③-|
④口口③ |--④-|
②②口口 |⑤-⑥-|
29
口②⑥口 |①--②|
②⑤口口 |--③-|
口口④⑦ |④-⑤-|
口③①① |⑥-⑦-|
30
口口口口 |①-②-|
③口口② |③-④-|
①④④口 |⑤---|
⑥口口⑤ |⑥---|
31
①口③① |①-②-|
口口④口 |③④⑤⑥|
②口⑤口
口口⑥口

⑩⑩口口
⑦口口口
⑪⑪口⑧ |⑦-⑧-⑨-|
口⑨口口 |⑩-⑪-|
32
口口①① |①-②-|
口④口口 |③-④-|
口口口口
②口③口

⑤口口⑥
口口⑤⑤
口口口口 |⑤-⑥-|
⑦口口⑧ |⑦-⑧-|
33
口①④口 |①-②-|
②④口口 |③-④-|
⑥③①① |⑤-⑥-|
⑥口⑤⑤ |----|
34
①①口口 |①-②-|
口口④口 |③-④-|
口口口口
口③口②

⑥口口⑤
⑤⑤口口
口口口口 |⑤-⑥-|
⑧口口⑦ |⑦-⑧-|
35
口④①口 |①-②-|
口口④② |③-④-|
①①③口
口口口口

口口⑦口
口⑧口口
口口口口 |⑤-⑥-|
⑤⑤口⑥ |⑦-⑧-|
36
①①⑤③ |①-②-|
⑤⑤口⑦ |③-④-|
③③④② |⑤-⑥-|
⑦⑦⑧⑥ |⑦-⑧-|
37
①①④④ |①-②-|
③口①口 |③-④-|
口②口口
口口口口

⑦口口口
口口口口
口⑧⑧⑤ |⑤-⑥-|
⑥⑥口口 |⑦-⑧-|
38
口口①口 |--①-|
②口口① |②③④-|
③口口口
④口口口

⑤⑤⑦口
口⑧口口
口口⑨口 |⑤-⑥-|
口口⑥⑥ |⑦⑧⑨-|
39
①口口① |----|
①口②① |①---|
口③口口 |--②-|
④口口口 |③-④-|
40
③⑤④④ |①-②-|
①①⑥② |③-④-|
①⑦①② |--⑤-|
口口②② |⑥-⑦-|
41
①口②④ |①-②-|
口①口④ |③-④-|
③口①①
口口①口

口口口口
口⑤口口
口口⑥口 |--⑤-|
口口口⑦ |⑥-⑦-|
42
①④①口 |①-②-|
①口①口 |③-④-|
口口口③
②口②口

口口⑦口
⑧口⑦⑤
⑧⑥口口 |⑤-⑥-|
口口口口 |⑦-⑧-|
43
③口④口 |--①-|
口⑤口口 |②-③-|
口口⑥口 |④-⑤-|
①⑦②口 |⑥-⑦-|
44
①①口口 |①-②-|
①口④④ |③-④-|
②②口口
②口口③

⑦⑤口口
口口口口
⑥口口口 |--⑤-|
口口口口 |⑥-⑦-|
45
口口①① |①-②-|
③口①口 |③-④-|
口口②②
④④②口

口口⑤口
口⑥口口
⑦口口口 |--⑤-|
口口口口 |⑥-⑦-|
46
④②口③ |①-②-|
④口口① |③-④-|
口口①①
口口①①

口口口口
口口⑤口
口⑥口口 |--⑤-|
口口⑦口 |⑥-⑦-|
47
③①②④ |①-②-|
口③④口 |③-④-|
①口口②
口口口口

口口口口
⑤口口⑤
⑦口口⑦ |⑤--⑥|
口⑥⑥口 |--⑦-|
48
口口③① |①②③-|
④口②口 |④-⑤-|
口口口口
口口⑤口

⑥⑥⑧口
口口口⑦
口口⑦口 |⑥--⑦|
口口口口 |--⑧-|
49
⑥⑥④⑦ |--①-|
①口口口 |②-③-|
⑤②⑤④ |④-⑤-|
口口③口 |⑥-⑦-|
50
口口口口 |①②③-|
①③口④ |④-⑤-|
口②口口
口⑤口口

口⑧⑥⑥
⑦口口口
口⑦口口 |⑥--⑦|
口口口口 |--⑧-|
51
口④口⑥ |--①-|
④口⑥① |②-③-|
口口②口 |④-⑤-|
⑤③⑦口 |⑥-⑦-|
52
①③口口 |①②③-|
口②口④ |④-⑤-|
口口口口
口⑤口口

口⑧⑥⑥
⑦口口口
口⑦口口 |⑥--⑦|
口口口口 |--⑧-|
53
⑦④⑥⑥ |--①-|
口口口① |②-③-|
④⑤②⑤ |④-⑤-|
口③口口 |⑥-⑦-|
54
⑧口⑦⑦ |①②③-|
④口③① |④-⑤-|
⑥⑥②口 |⑥--⑦|
口⑤口口 |--⑧-|
55
⑥口⑧口 |--①-|
③④⑤① |②-③④|
口口②口 |⑤-⑥-|
口⑦口口 |⑦-⑧-|
56
口①口① |①---|
③③③口 |②---|
②口②④ |③--④|
⑤⑤⑤口 |--⑤-|
57
口口口② |--①-|
③④口口 |②-③④|
①①①口
口口口口

⑥口⑦口
口口⑤口
口⑧口口 |⑤-⑥-|
口口口口 |⑦-⑧-|
58
⑥④④① |①---|
③⑥口① |②-③-|
口口⑤⑤ |④--⑤|
口②②口 |--⑥-|
59
⑤⑦口② |①-②-|
④口②④ |③-④-|
⑧⑥口口 |⑤-⑥-|
①口口③ |⑦-⑧-|
60
⑦口口① |①②③④|
口⑤⑥② |⑤⑥-⑦|
口口口③
口口口④

口口口口
口口口⑪
⑧口⑩口 |-⑧-⑨|
口⑨口口 |⑩⑪--|
61
口口口口 |①②-③|
①②口口 |--④⑤|
口⑤④③
口口③口

口口⑪口
⑩⑨⑧⑦
⑥口口口 |⑥⑦⑧⑨|
口口口口 |⑩-⑪-|
62
②①口① |①---|
④⑥⑥④ |②-③-|
口⑥⑥口 |④--⑤|
⑤③口⑤ |--⑥-|

accuracy: 99.5%
最終更新:2023年01月17日 10:33