アットウィキロゴ
泡沫、哀のまほろば
幽閉サテライト

EXTREME

Level: 9.3
BPM: 155
Notes(hold): 608(137)

1
口口口∨ |①---|
②口口| |----|
∧口口① |②---|
口口口口 |----|

口口口口
口口口口
口口口2
口口口口
2
口口口口 |①---|
口②①口 |----|
口∧|口 |②---|
口口∧口 |----|

口口口口
1口2口
口口口口
口口口口
3
口口口① |①---|
③1口③ |--②-|
口口②口 |----|
口口口口 |③---|
4
―①口 |①---|
口口口口 |--②-|
口口口口 |③---|
口口口口 |④---|

②口口口
口口口口
③―<口
口口口口

口口2口
口口口口
4口口口
口口口口
5
口口口口 |①---|
∨∨∨∨ |----|
|||| |②---|
②②①① |----|

口口口口
口口口口
口口口口
口口22
6
∨∨∨∨ |①---|
|||| |----|
②②①① |②---|
口口口口 |----|

口口口口
口口口口
口口22
11口口
7
②②①① |①---|
口口口| |----|
11口| |②---|
口口口∧ |----|
8
⑥⑤口口 |①-②-|
②口①口 |③-④-|
④口③口 |⑤-⑥-|
口口口口 |⑦-⑧-|

口口口口
口⑧⑦口
口口口口
口口口口
9
口口口口 |①---|
①④口口 |----|
∧口③口 |②---|
口口②口 |③-④-|

口口口1
2口口口
口口口口
口口口口
10
①―<口 |①---|
口口口② |②---|
口口口口 |③-④-|
口口口口 |⑤-⑥-|

3口③口
口④口口
口口⑤口
口⑥口口
11
口口口口 |①---|
②口口∨ |②---|
口口口| |③-④-|
口口口① |⑤-⑥-|

口口口口
口口③口
④⑤⑥口
口口口3
12
口①<② |①---|
①口口口 |②---|
∧口口口 |③---|
口口口口 |④---|

③口口口
∧③口口
口∧口口
口口口④

42口口
24口口
口口口口
口口口口
13
口口口口 |①---|
口口口口 |②-③-|
∨∨②口 |--④-|
①①口口 |⑤---|

―③口
④口口口
口⑤口口
口口口口

口口5口
口口口口
口口口口
33口口
14
①――< |①---|
口口口口 |----|
口口口口 |②-③-|
口口口口 |④---|

2口口④
口口③口
口②口口
口口口口
15
口口口口 |①---|
口②口∨ |②-③-|
口>①① |--④-|
口口口口 |⑤---|

口⑤口④
口口口口
∨口口口
③③<口

口口口口
口口口口
口口33
55口口
16
⑥口口⑤ |①-②-|
④③②① |③-④-|
口口口口 |⑤-⑥-|
⑦口口⑧ |⑦-⑧-|
17
⑤⑤⑤⑤ |①-②-|
口③①① |③④-⑤|
②②④口 |----|
口口口口 |----|
18
口口⑥口 |①---|
②口③⑥ |②-③-|
④口⑤① |④-⑤-|
口口①口 |--⑥-|
19
口①口口 |--①-|
口②口口 |②-③-|
口③口口 |④-⑤-|
口④⑤口 |--⑥-|

口口口口
⑥口口口
口口口口
口口口口
20
③口④口 |①-②-|
口①②口 |③-④-|
⑤口⑥口 |⑤-⑥-|
口口口口 |--⑦-|

口口口口
⑦⑦⑦口
口口口口
口口口口
21
口口④口 |①-②-|
口口口⑤ |③-④-|
口③⑥① |⑤-⑥-|
口口②⑦ |⑦---|
22
口口⑦口 |①-②-|
①⑦②⑦ |③-④-|
③口④口 |⑤-⑥-|
⑤口⑥口 |--⑦-|
23
口口口③ |--①-|
口口口| |②--③|
①口口∧ |----|
口②口口 |----|
24
②⑦⑥1 |①-②-|
⑧③口⑤ |③-④-|
口口④口 |⑤-⑥-|
口口口口 |⑦-⑧-|
25
口口口① |①---|
口口口口 |②-③-|
①―<口 |④---|
口口口口 |⑤---|

口⑤⑤口
口口口口
5口③②
口口口④
26
口口口① |①---|
③口②∧ |--②-|
口④>① |③-④-|
口口⑤口 |⑤---|

口口口2
口口口口
口口口2
口口口口
27
①口口口 |①---|
∧口口口 |--②-|
①<口口 |--③-|
口口口口 |④-⑤-|

2口口口
口②⑤口
2④口口
口口③口
28
口①―< |①---|
口口口口 |②---|
口口口① |③---|
口口口口 |④---|

②口口口
口>―②
口口口口
口口口口

口口③口
口口口口
口③―<
口口口口

口口口口
口口口口
④口口口
口>―④

口2口口
口口口3
口4口口
口口口口
29
口口口口 |①---|
口∨口口 |②-③-|
口|口口 |④-⑤-|
口①口1 |⑥-⑦-|

口⑤⑤口
⑥口口②
口⑦口③
口4口口
30
口口口口 |①---|
口口∨口 |②---|
口口|口 |③-④-|
口口①口 |⑤---|

口口③口
口口口④
②口⑤口
口口2口
31
①∨②口 |①---|
||口口 |②---|
∧①口口 |③---|
口口口口 |④---|

∨③口口
||口口
③∧④口
口口口口

24口口
口口口口
42口口
口口口口
32
口口口口 |①-②-|
④③②① |③-④-|
口口口口 |⑤-⑥-|
⑤⑥⑦⑧ |⑦-⑧-|
33
③∨∨③ |①---|
|||| |②-③-|
∧①①∧ |----|
口口口口 |④---|

4口口4
口口口口
口22口
口口口口
34
口口①口 |①---|
口口口口 |--②-|
①――< |--③-|
口口口口 |--④-|

口口口口
口③口④
口口口②
口口口口
35
口①①口 |①---|
口口口口 |----|
1口口口 |②③-④|
口口口口 |-⑤⑥-|

口④④口
⑤②②⑤
⑥③③⑥
口口口口
36
口>―① |①---|
口③―< |②---|
口口口口 |③---|
口②口④ |④---|

口口口3
口口口口
口口口口
口口口口
37
②口口④ |①---|
口口口口 |②---|
口>―① |③---|
口③―< |④---|

口口口口
口1口口
口口口3
口口口口
38
口∨口⑤ |①---|
口③①⑤ |②-③-|
②口∧口 |④---|
口口④④ |⑤---|

口口口口
口53口
口口口口
口1口口
39
①①<⑤ |①---|
∧口②口 |②-③-|
∨口③口 |④---|
④④<口 |⑤---|

33口口
口口口口
口口口口
55口口
40
口②口④ |①---|
口口口口 |②---|
口③―< |③---|
口>―① |④---|

口口口口
口口口口
口口口口
口口口3
41
口③―< |①---|
②>―① |②---|
口口口口 |③---|
口口口④ |④---|

口口口口
口口口3
口1口口
口口口口
42
口口口④ |①---|
②∨∨口 |②-③-|
口③①⑤ |④---|
口口口口 |⑤---|

口1口口
口口口口
口53口
口口口口
43
口①<口 |①---|
①<口口 |②-③-|
口口口口 |④---|
口口口口 |⑤---|

口口③③
口口④④
口口∧∧
⑤口②口

口3口口
3口55
口口口口
口口口口
44
①―<口 |①---|
―③口 |②---|
口口口口 |③---|
④口②口 |④---|

3口口口
口口口口
口口口口
口口口口
45
④口口② |①---|
口口口口 |②---|
①―<口 |③---|
―③口 |④---|

口口口口
口口1口
3口口口
口口口口
46
⑤口∨口 |①---|
⑤①③口 |②-③-|
口∧口② |④---|
④④口口 |⑤---|

口口口口
口35口
口口口口
口口1口
47
⑤>①① |①---|
口②口∧ |②-③-|
口③口∨ |④---|
口>④④ |⑤---|

口口33
口口口口
口口口口
口口55
48
口口口口 |①---|
口>―① |②---|
口口口口 |③---|
口口口口 |④---|

口口∨口
口口|口
口口①口
口口口口

口口口口
口口口口
③―<口
口口口口

口口口口
口∨口口
口|口口
口③口口

口口口口
口口口2
4口2口
口4口口
49
口口口口 |①---|
口①―< |②---|
口口口口 |③---|
口口口口 |④---|

口口①口
口口|口
口口∧口
口口口口

口口口口
口口口口
―③口
口口口口

口口口口
口∨口口
口|口口
口③口口

口口2口
口2口口
口口4口
口4口口
50
②②①① |①---|
口口口| |----|
口口口| |②---|
口口口∧ |----|
51
⑥⑤口口 |①-②-|
②口①口 |③-④-|
④口③口 |⑤-⑥-|
口口口口 |⑦-⑧-|

口口口口
口⑧⑦口
口口口口
口口口口
52
口口口1 |①---|
①口口口 |②---|
|口口口 |③-④-|
∧口口口 |⑤-⑥-|

口口③口
3④口口
口口⑤②
口⑥口口
53
口口口口 |①---|
口口口∨ |②---|
口口口| |③-④-|
口口口① |⑤-⑥-|

口口口口
②口③口
④⑤⑥口
口口口3
54
口①<② |①---|
①<口口 |②---|
口口口口 |③---|
口口口口 |④---|

③口口口
∧③口口
口∧口口
口口口④

42口口
24口口
口口口口
口口口口
55
―③口 |①---|
口口口口 |②-③-|
∨∨②口 |--④-|
①①口口 |⑤---|

口口5口
④口口口
口⑤口口
33口口
56
①――< |①---|
口口口口 |----|
口口口口 |②-③-|
口口口口 |④---|

2口口④
口口③口
口②口口
口口口口
57
口⑤口④ |①---|
口②口∨ |②-③-|
∨>①① |--④-|
③③<口 |⑤---|

口口口口
口口口口
口口33
55口口
58
⑥口口⑤ |①-②-|
④③②① |③-④-|
口口口口 |⑤-⑥-|
⑦口口⑧ |⑦-⑧-|
59
⑤⑤⑤⑤ |①-②-|
口③①① |③④-⑤|
②②④口 |--⑥-|
口⑧⑦⑥ |⑦-⑧-|
60
口口口口 |①---|
①①< |----|
口口口口 |②③-④|
口口口口 |-⑤⑥-|

⑤④④⑤
⑥22⑥
口②②口
口③③口
61
口口口口 |①---|
∨∨②④ |②---|
||④② |③---|
①③口口 |④---|

口口口口
口口口口
口口口口
3口口口
62
口②口口 |①---|
②口∨∨ |②---|
口口|| |③---|
口口①③ |④---|

口口④口
口口口④
口口口口
口13口
63
①口∨② |①---|
|④|口 |②-③-|
∧口③口 |④---|
⑤⑤口口 |⑤---|

3口口口
口口口口
口口5口
口口口1
64
⑤⑤∨∨ |①---|
②口①① |②-③-|
口③∨∨ |④---|
口口④④ |⑤---|

口口口口
口口33
口口口口
口口55
65
口口口口 |①---|
∨∨②④ |②---|
||④② |③---|
①③口口 |④---|

口口口口
口口口口
口口口口
3口口口
66
口②口口 |①---|
②口∨∨ |②---|
口口|| |③---|
口口①③ |④---|

口口口④
口口④口
口口口口
口13口
67
①①口口 |①---|
②③口③ |②-③-|
口⑤③⑤ |④---|
④口⑤1 |⑤---|
68
①―<⑤ |①---|
口口③③ |②-③-|
口④④口 |④---|
口口口② |⑤---|

4口口口
口口口口
口口口口
口口口口
69
∨∨口口 |①---|
①③④② |②---|
口口②④ |③---|
口口口口 |④---|

口口口口
3口口口
口口口口
口口口口
70
口口口口 |①---|
口口口② |②---|
①③口口 |③---|
∧∧④口 |④---|

口口口口
口1口口
3口口口
口口口口
71
口③口⑥ |①---|
②∧④④ |②-③-|
口口>① |④---|
口⑤⑤口 |⑤-⑥-|

口5口口
口口口口
口1口3
口口口口
72
①口∨口 |①---|
|口|② |②-③-|
∧③④口 |④---|
口口口口 |⑤-⑥-|

3⑤口口
口口口口
⑥口5口
口口口口
73
∨口口① |①---|
②口口∧ |----|
∨口口① |②---|
②口口∧ |----|

口口口2
口口口口
口口口2
口口口口
74
口口口口 |①---|
1①①口 |----|
口||口 |②---|
1∧∧口 |③---|

口③③口
口22口
口②②口
口口口口
75
口口口口 |①-②-|
⑤④③② |③-④-|
口⑧⑦⑥ |⑤-⑥-|
①①< |⑦-⑧-|
76
口口口口 |①-②-|
⑤④③② |③-④-|
①⑧⑦⑥ |⑤-⑥-|
口口口口 |⑦-⑧-|
77
口口口口 |①---|
口口口口 |----|
①口口口 |----|
口11口 |----|
最終更新:2023年01月17日 12:17