アットウィキロゴ
打上花火
DAOKO×米津玄師

BASIC

Level: 1
BPM: 96
Notes: 66

1
口口口口 |(96)----|
口口口口 |----|
口口口口 |----|
口口口口 |----|
2
口口口口 |----|
口口口口 |----|
口口口口 |----|
口口口口 |----|
3
口口口口 |----|
口口口口 |----|
口口口口 |----|
口口口口 |----|
4
口口口口 |----|
口口口口 |----|
口口口口 |----|
口口口口 |----|
5
口口口口 |----|
口口口口 |----|
口口口口 |----|
口口口口 |----|
6
口口口口 |①---|
口口①口 |----|
口口口口 |----|
口口口口 |----|
7
口口口口 |①---|
口①口口 |----|
口口口口 |----|
口口口口 |----|
8
口口口口 |①---|
口口口口 |----|
口口①口 |----|
口口口口 |----|
9
口口口口 |①---|
口口口口 |----|
口①口口 |----|
口口口口 |----|
10
口口口口 |①---|
口口口① |----|
口口口口 |----|
口口口口 |----|
11
口口口口 |①---|
口口①口 |----|
口口口口 |----|
口口口口 |----|
12
口口口口 |①---|
口①口口 |----|
口口口口 |----|
口口口口 |----|
13
口口口口 |①---|
①口口口 |----|
口口口口 |----|
口口口口 |----|
14
口口口口 |①---|
口口口口 |----|
①口口口 |----|
口口口口 |----|
15
口口口口 |①---|
口口口口 |----|
口①口口 |----|
口口口口 |----|
16
口口口口 |①---|
口口口口 |----|
口口①口 |----|
口口口口 |----|
17
口口口口 |①---|
口口口口 |----|
口口口① |----|
口口口口 |----|
18
口口口口 |①---|
口口口口 |----|
口口口口 |----|
口口口① |----|
19
口口口口 |①---|
口口口口 |----|
口口口口 |----|
口口①口 |----|
20
口口口口 |①---|
口口口口 |----|
口口口口 |----|
口①口口 |----|
21
口口口口 |①---|
口口口口 |----|
口口口口 |----|
①口口口 |----|
22
口口口口 |①---|
口口口口 |----|
口①①口 |----|
口口口口 |----|
23
口口口口 |①---|
口①①口 |----|
口口口口 |----|
口口口口 |----|
24
口①①口 |①---|
口口口口 |----|
口口口口 |----|
口口口口 |----|
25
口口口口 |----|
口口口口 |----|
口口口口 |----|
口口口口 |----|
26
口口口口 |①---|
口口③口 |②---|
口口②口 |③---|
口口①口 |----|
27
口①口① |①---|
口口口口 |----|
口口口口 |----|
口口口口 |----|
28
口口口口 |①---|
口③口口 |②---|
口②口口 |③---|
口①口口 |----|
29
①口①口 |①---|
口口口口 |----|
口口口口 |----|
口口口口 |----|
30
口口口口 |①---|
口③③口 |②---|
口②②口 |③---|
口①①口 |----|
31
①口口① |①---|
口口口口 |----|
口口口口 |----|
口口口口 |----|
32
口口口口 |①---|
②②①① |----|
口口口口 |②---|
口口口口 |----|
33
口口口口 |①---|
口口口口 |----|
口①①口 |----|
口口口口 |----|
34
口口②① |①---|
口口口口 |----|
口口口口 |②---|
口口口口 |----|
35
②①口口 |①---|
口口口口 |----|
口口口口 |②---|
口口口口 |----|
36
口口口口 |①---|
①②口口 |----|
口口口口 |②---|
口口口口 |----|
37
口口口口 |①---|
口口①② |----|
口口口口 |②---|
口口口口 |----|
38
口口口口 |①---|
口口口口 |----|
口口②① |②---|
口口口口 |----|
39
口口口口 |①---|
口口口口 |----|
②①口口 |②---|
口口口口 |----|
40
口口口口 |①---|
口口口口 |----|
口口口口 |----|
口①①口 |----|
41
口口口口 |①---|
口口口口 |----|
①口口① |----|
口口口口 |----|
42
口口口口 |①---|
口口①口 |----|
口口口口 |----|
口口口口 |----|
43
口口口口 |①---|
口①口口 |----|
口口口口 |----|
口口口口 |----|
44
口口口口 |①---|
口口口口 |----|
口口①口 |----|
口口口口 |----|
45
口口口口 |①---|
口口口口 |----|
口①口口 |(80)----|
口口口口 |(70)----|
46
口口口口 |--(50)--|
口口口口 |(40)----|
口口口口 |----|
口口口口 |----|

accuracy: 99.5%
最終更新:2023年07月01日 04:10