アットウィキロゴ
打上花火
DAOKO×米津玄師

ADVANCED

Level: 4
BPM: 96
Notes: 153

1
口口口口 |(96)----|
口口口口 |----|
口口口口 |----|
口口口口 |----|
2
口口口口 |----|
口口口口 |----|
口口口口 |----|
口口口口 |----|
3
口口口口 |----|
口口口口 |----|
口口口口 |----|
口口口口 |----|
4
口口口口 |----|
口口口口 |----|
口口口口 |----|
口口口口 |----|
5
口口口口 |----|
口口口口 |----|
口口口口 |----|
口口口口 |----|
6
口口口口 |①---|
口口口口 |②---|
口口口口 |③---|
①②③④ |④---|
7
口口口口 |①---|
口口口口 |②---|
①②③④ |③---|
口口口口 |④---|
8
口口口口 |①---|
①②③④ |②---|
口口口口 |③---|
口口口口 |④---|
9
①②③④ |①---|
口口口口 |②---|
口口口口 |③---|
口口口口 |④---|
10
口口口口 |①---|
②口口口 |②---|
①口口口 |----|
口口口口 |----|
11
口口口口 |①---|
口②口口 |②---|
口①口口 |----|
口口口口 |----|
12
口口口口 |①---|
口口②口 |②---|
口口①口 |----|
口口口口 |----|
13
口口口口 |①---|
口口口② |②---|
口口口① |----|
口口口口 |----|
14
口口口口 |①---|
口口口口 |②---|
口口口② |----|
口口口① |----|
15
口口口口 |①---|
口口口口 |②---|
口口②口 |----|
口口①口 |----|
16
口口口口 |①---|
口口口口 |②---|
口②口口 |----|
口①口口 |----|
17
口口口口 |①---|
口口口口 |②---|
②口口口 |----|
①口口口 |----|
18
口口口口 |①---|
③④②① |②---|
口口口口 |③---|
口口口口 |④---|
19
口口口口 |①---|
口口口口 |②---|
③④②① |③---|
口口口口 |④---|
20
口口口口 |①---|
口口口口 |②---|
口口口口 |③---|
③④②① |④---|
21
口口口口 |①---|
口口口口 |----|
口①①口 |----|
口口口口 |----|
22
②③③② |①---|
口口口口 |②---|
口口口口 |③---|
①④④① |④---|
23
⑦⑥③⑦ |--①-|
口⑤②口 |②-③-|
口④①口 |④-⑤-|
口口口口 |⑥-⑦-|
24
口口口口 |----|
口口口口 |----|
口口口口 |----|
口口口口 |----|
25
口口口口 |----|
口口口口 |----|
口口口口 |----|
口口①口 |①---|
26
口①口① |①---|
口口口口 |----|
口①口① |----|
口②口口 |②---|
27
①口①口 |①---|
口口②口 |----|
①③①口 |----|
口口口口 |②-③-|
28
③口口③ |①---|
②口口② |②--③|
口口④口 |----|
口⑤①口 |④-⑤-|
29
口口口口 |----|
口口①口 |----|
口②口口 |----|
口口口口 |①-②-|
30
③口口③ |①---|
②④口② |②--③|
口口⑤口 |----|
口口①口 |④-⑤-|
31
③口口③ |①---|
②口口② |②--③|
口⑤⑤口 |----|
④①口④ |④-⑤-|
32
口口口口 |①---|
①口口① |②---|
口口口口
口②②口

口口口口
⑥④③⑤
口口口口 |③-④-|
口口口口 |⑤-⑥-|
33
①口口① |--①-|
口口口口 |----|
口口口口 |----|
口口口口 |----|
34
口口口口 |①---|
③口口① |②---|
口口口口 |③---|
口④②口 |④---|
35
③口口① |①---|
口口口口 |②---|
口④②口 |③---|
口口口口 |④---|
36
口口口口 |①---|
③口口① |②---|
口口口口 |③---|
口④②口 |④---|
37
口口口口 |①---|
口口口口 |----|
口①①口 |----|
口口口口 |----|
38
口口口口 |①---|
③口口① |②---|
口口口口 |③---|
口④②口 |④---|
39
③口口① |①---|
口口口口 |②---|
口④②口 |③---|
口口口口 |④---|
40
口口口口 |①---|
口①①口 |----|
口②②口 |②---|
口口口口 |----|
41
①口口① |①---|
口口口口 |----|
口口口口 |②---|
②口口② |----|
42
口口口口 |①---|
口口口口 |②---|
①②③④ |③---|
口口口口 |④---|
43
口口口口 |①---|
①②③④ |②---|
口口口口 |③---|
口口口口 |④---|
44
口①②口 |①---|
口口口口 |----|
口口口口 |②---|
口口口口 |----|
45
口口口口 |①---|
口①②口 |----|
口口口口 |(80)②---|
口口口口 |(70)----|
46
口口口口 |①-(50)--|
口口口口 |(40)--②-|
口①②口 |----|
口口口口 |----|

accuracy: 99.5%
最終更新:2023年07月01日 04:10