アットウィキロゴ
打上花火
DAOKO×米津玄師

EXTREME

Level: 6
BPM: 96
Notes: 308

1
口口口口 |(96)----|
口口口口 |----|
口口口口 |----|
口口口口 |----|
2
口口口口 |①---|
口口口口 |----|
①口口口 |----|
口口口口 |----|
3
口口口口 |①---|
口口口口 |----|
口口口① |----|
口口口口 |----|
4
口口口口 |①---|
①口口口 |----|
口口口口 |----|
口口口口 |----|
5
口口口口 |①---|
口口口① |----|
口口口口 |----|
口口口口 |----|
6
口口口口 |①-②-|
④口口口 |③-④-|
①②③口
口口口口

口口口口
⑧⑤⑥⑦
口口口口 |⑤-⑥-|
口口口口 |⑦-⑧-|
7
口口口口 |①-②-|
⑤⑥③④ |③-④-|
①②⑦⑧ |⑤-⑥-|
口口口口 |⑦-⑧-|
8
口口口口 |①-②-|
④口口口 |③-④-|
①②③口
口口口口

口口口口
⑧⑤⑥⑦
口口口口 |⑤-⑥-|
口口口口 |⑦-⑧-|
9
口①③⑤ |①-②-|
口②④⑥ |③-④-|
口口口口 |⑤-⑥-|
口⑦⑧口 |⑦-⑧-|
10
口口口⑥ |①---|
⑤口口④ |②-③-|
③②口① |--④-|
口口口口 |⑤-⑥-|
11
①③②口 |①-②-|
口口④口 |③-④-|
口⑥⑤口 |----|
口口口口 |⑤-⑥-|
12
②⑤⑤① |①---|
口④③口 |②---|
口口口口 |③-④-|
口口口口 |--⑤-|
13
口口口口 |----|
口口口口 |----|
口口口口 |----|
口①②口 |①-②-|
14
口口口⑥ |①---|
⑤口口④ |②-③-|
③②口① |--④-|
口口口口 |⑤-⑥-|
15
①③②口 |①-②-|
口口④口 |③-④-|
⑥口口⑤ |----|
口口口口 |⑤-⑥-|
16
口②②口 |①---|
口②②口 |②---|
口口口口
口①①口

口口口口
口口口口
口④③口 |③-④-|
口⑥⑤口 |⑤-⑥-|
17
口口口口 |①---|
①③②① |----|
口口口口 |----|
口口口口 |②-③-|
18
①口口口 |①---|
①口口⑤ |--②-|
②③④⑤ |③-④-|
口口口口 |⑤---|
19
口口口口 |--①-|
口口口口 |②-③-|
口口③口
口口②①

口口口口
口口口口
口口口④ |④-⑤-|
口⑦⑥⑤ |⑥-⑦-|
20
口口口口 |①-②-|
口口口④ |③-④-|
口③②口
①口口口

口口⑥口
⑤口⑦口
口⑧口口 |⑤-⑥-|
口口口口 |⑦-⑧-|
21
口口口口 |①---|
口口口口 |----|
口口口口
口①①口

口口口口
口口口口
口口口口 |----|
口③口② |②-③-|
22
④④⑤⑤ |①---|
②②③③ |--②-|
口口①① |③-④-|
口口口口 |⑤---|
23
口⑥⑥口 |--①-|
③⑤⑤③ |②-③-|
②④④② |④-⑤-|
①⑦⑦① |⑥-⑦-|
24
口口口口 |----|
口口口口 |----|
口口口口 |----|
口口口口 |----|
25
口口口口 |----|
口口口口 |----|
口口口口 |----|
口口①口 |①---|
26
口②①② |①---|
口①口① |②---|
口②①② |③---|
③④口③ |④---|
27
②①②口 |①---|
①口①口 |②---|
②①②口
口口口口

口口口口
口⑥口口
口口⑤口 |③---|
③④④③ |④-⑤⑥|
28
口口①① |①---|
口口③口 |②③-④|
④②口口
口口口口

口口口口
⑤口⑥口
口⑦口口 |-⑤--|
口口⑧口 |⑥⑦⑧-|
29
①口①口 |①---|
口②口② |②---|
①口①口
口②口②

口③④③
口⑤口口
口③⑥③ |③---|
口⑦口口 |④⑤⑥⑦|
30
②口口① |①-②-|
③口口④ |③④-⑤|
口口⑤⑤
口口口口

口口口口
口⑧口口
口口⑦口 |----|
口⑥⑥口 |⑥-⑦⑧|
31
②⑥①口 |①-②-|
③口⑦④ |③④-⑤|
口⑧⑤⑤ |----|
口口⑨口 |⑥⑦⑧⑨|
32
①口②② |①---|
口口口口 |②---|
口口口口
口口口口

⑥口口口
⑤⑥口口
④⑤③③ |③-④-|
口④口口 |⑤-⑥-|
33
口口口口 |--①-|
口口口口 |②---|
口②②①
口②②①

③口口③
口口口口
④口口④ |③---|
口口口口 |④---|
34
口口③口 |①---|
⑤⑤②口 |②-③-|
口口口口 |④---|
口④①口 |⑤---|
35
口口④口 |①---|
口③口口 |②③④-|
口口②口
口口①口

口口口口
⑥⑥口口
口口口口 |⑤---|
口⑤口口 |⑥---|
36
口口③口 |①---|
⑤⑤②口 |②-③-|
口口口口 |④---|
口④①口 |⑤---|
37
④口口④ |①---|
口③③口 |②---|
②口口② |③---|
口①①口 |④---|
38
⑤⑤口③ |①---|
口口口② |②-③-|
口口口口 |④---|
④口口① |⑤---|
39
⑥⑥④口 |①---|
口③口口 |②③④-|
口口②口 |⑤---|
⑤口口① |⑥---|
40
③口口③ |①---|
②⑤口② |--②-|
口①④口 |③---|
口①①口 |--④⑤|
41
口口①口 |①---|
口口口口 |--②-|
②口口② |③---|
口③③口 |----|
42
口口口口 |①-②-|
④口口口 |③-④-|
①②③口
口口口口

口口口口
⑧⑤⑥⑦
口口口口 |⑤-⑥-|
口口口口 |⑦-⑧-|
43
口口口口 |①-②-|
④⑤⑥⑦ |③-④-|
①②③口 |⑤-⑥-|
口口口口 |⑦---|
44
口口口口 |①-②-|
④⑤⑥口 |③-④-|
①②③口 |⑤-⑥-|
口口口口 |----|
45
口口口口 |①-②-|
④⑤口口 |③-④-|
①②③口 |(80)⑤---|
口口口口 |(70)----|
46
口口口口 |①-(50)②-|
④口口口 |(40)③-④-|
①②③口 |----|
口口口口 |----|

accuracy: 99.5%
最終更新:2023年07月01日 04:10