アットウィキロゴ
オトモダチフィルム
オーイシマサヨシ

BASIC

Level: 3
BPM: 158
Notes: 143

1
口口口口 |----|
口口口口 |----|
口口口口 |----|
口口口口 |----|
2
口②口① |①---|
口口口口 |----|
口口口口 |②---|
口口口口 |----|
3
口口口口 |①---|
口②口① |----|
口口口口 |②---|
口口口口 |----|
4
口口口口 |①---|
口③③口 |----|
口②口① |②---|
口口口口 |--③-|
5
①口口口 |----|
口口口口 |----|
口口口口 |----|
口口口口 |--①-|
6
口①②口 |--①-|
口口口口 |--②-|
③口口口 |----|
口口口口 |--③-|
7
口口口口 |----|
口口口② |--①-|
口口①口 |----|
口口口口 |--②-|
8
口口口口 |--①-|
口②①口 |--②-|
口口口口 |----|
口口口③ |--③-|
9
口口口口 |----|
口口口口 |--①-|
口口口口 |----|
口①口口 |----|
10
口口③口 |①---|
①口口口 |----|
②口口口 |②---|
口口口口 |--③-|
11
口口口③ |----|
①②口口 |①---|
口口口口 |②---|
口口口口 |--③-|
12
口①②口 |----|
口口口口 |----|
口口口口 |①---|
口口口口 |--②-|
13
口口口口 |----|
口口口口 |①---|
口②①口 |②---|
口口口口 |----|
14
口口口口 |①---|
①口②口 |----|
口口口口 |②---|
口口口口 |----|
15
口口口口 |①---|
口口口口 |----|
①口②口 |②---|
口口口口 |----|
16
口口口口 |①---|
口口口口 |----|
口③口口 |②---|
①口②口 |--③-|
17
口口口口 |--①-|
口口口口 |--②-|
口口①② |----|
口口口口 |----|
18
口③口口 |①---|
口口口① |----|
口口口② |②---|
口口口口 |--③-|
19
③口口口 |----|
口口②① |①---|
口口口口 |②---|
口口口口 |--③-|
20
口②①口 |----|
口口口口 |----|
口口口口 |①---|
口口口口 |--②-|
21
口口口口 |----|
口口口口 |----|
口①②口 |①---|
口口口口 |②---|
22
口②口① |①---|
口口口口 |----|
口口口口 |②---|
口口口口 |----|
23
口口口口 |①---|
口②口① |----|
口口口口 |②---|
口口口口 |----|
24
口口口口 |①---|
口口口口 |----|
口②口① |②---|
口口口口 |----|
25
口口口口 |①---|
口口口口 |----|
口③③口 |②---|
口②口① |--③-|
26
口口口口 |----|
口口口口 |----|
口口口口 |----|
口口口口 |----|
27
口口口① |①---|
口口②口 |----|
口口口口 |②---|
口口口口 |----|
28
口口口口 |①---|
口口口口 |----|
口①口口 |②---|
②口口口 |----|
29
口口口口 |①---|
①口口口 |----|
口②口口 |②---|
口口口口 |----|
30
口口口口 |①---|
口③②① |②---|
口口口口 |③---|
口口口口 |----|
31
①口口口 |①---|
口②口口 |----|
口口口口 |②---|
口口口口 |----|
32
口口口口 |①---|
口口口③ |----|
口口①口 |②---|
口口口② |--③-|
33
口口口口 |----|
口①②口 |--①-|
口口口口 |----|
口口口口 |--②-|
34
口口②口 |----|
①口口口 |--①-|
口口口口 |----|
口口口口 |--②-|
35
口口口口 |----|
口③口口 |①---|
口①②口 |②---|
口口口口 |--③-|
36
口口口口 |--①-|
口口口口 |--②-|
口①口口 |----|
口②口口 |----|
37
口口口口 |①---|
口①口① |----|
口口②口 |②---|
口口口口 |----|
38
口口口口 |①---|
口口口口 |----|
①②口口 |②---|
口口口口 |----|
39
口口口口 |①---|
④口①口 |②---|
口口②口 |③---|
口口③口 |--④-|
40
口口口口 |----|
口口①口 |----|
口口口口 |①---|
口口口口 |----|
41
口口口口 |①---|
①①口口 |----|
口口②口 |②---|
口口口口 |----|
42
口口口口 |①---|
口口口口 |----|
①①口口 |②---|
口口②口 |----|
43
口口口口 |①---|
口口口① |----|
口口②口 |②---|
口口口口 |----|
44
口口口口 |①---|
口②口口 |--②-|
口③口口 |--③-|
口①口口 |----|
45
口口口口 |①---|
①口①口 |----|
口②口口 |②---|
口口口口 |----|
46
口口口口 |①---|
口口口口 |----|
口口②① |②---|
口口口口 |----|
47
口口口口 |①---|
口①口④ |②---|
口②口口 |③---|
口③口口 |--④-|
48
口口口口 |----|
口①口口 |----|
口口口口 |①---|
口口口口 |----|
49
口口口口 |①---|
口口①① |----|
口②口口 |②---|
口口口口 |----|
50
口口口口 |①---|
口口口口 |----|
口口①① |②---|
口②口口 |----|
51
口口口口 |①---|
①口口口 |----|
口②口口 |②---|
口口口口 |----|
52
口口口口 |①---|
口口②口 |--②-|
口口口口
口口①口

口口口口
口口口口
口口③口 |--③-|
口口④口 |--④-|
53
口口口口 |----|
口口口口 |----|
口①口口 |①---|
口口口口 |----|
54
口②口口 |①---|
口口①口 |----|
口口口口 |②---|
口口口口 |----|
55
口口口口 |①---|
口①①口 |----|
口②②口 |②---|
口口口口 |----|
56
口口口口 |①---|
口口口口 |--②-|
②③④口 |--③-|
口①①口 |--④-|
57
口口口口 |----|
①口口口 |----|
口口口口 |①---|
口口口口 |----|
58
口口口口 |①---|
口口①口 |----|
②口口口 |②---|
口口口口 |----|
59
口口口口 |①---|
口④④口 |②---|
口③②① |③---|
口口口口 |--④-|

accuracy: 99.5%
最終更新:2023年01月17日 10:56