アットウィキロゴ
オトモダチフィルム
オーイシマサヨシ

ADVANCED

Level: 6
BPM: 158
Notes: 296

1
口口口口 |----|
口口口口 |----|
口口口口 |----|
口口口口 |----|
2
口口口口 |①---|
①口口① |----|
③口口③ |②---|
口②口口 |--③-|
3
口口口口 |----|
口口①口 |----|
口②口口 |①---|
口口口口 |②---|
4
④口口④ |①---|
①②③口 |②---|
口口口口 |③---|
口口口口 |--④-|
5
口①口口 |----|
口口口口 |----|
口口口口 |----|
口口口口 |--①-|
6
口口口口 |--①-|
①口口口 |--②-|
口②口④ |--③-|
口口③口 |--④-|
7
①①②口 |----|
口口口口 |--①-|
口口口口 |----|
口口口口 |--②-|
8
口口口口 |--①-|
口口口① |--②-|
④口②口 |--③-|
口③口口 |--④-|
9
口口①① |----|
口口口口 |--①-|
口②口口 |----|
口口口口 |②---|
10
口②口口 |①-②-|
口⑥④口 |--③-|
③口口① |④---|
口⑤口口 |⑤-⑥-|
11
口口口口 |--①-|
口口口口 |②---|
口③口② |③---|
口口①口 |----|
12
⑤⑤③口 |--①-|
①②口③ |②---|
口口④口 |③---|
口口口口 |④-⑤-|
13
口口口口 |----|
口①①口 |①---|
②口口口 |②---|
③口口口 |③---|
14
口⑦⑥⑤ |①-②-|
口口口口 |③-④-|
口④口③ |--⑤-|
口②口① |⑥-⑦-|
15
口口口口 |--①-|
口④④口 |②-③-|
口③②① |----|
口口口口 |④---|
16
⑤⑥⑦口 |①-②-|
口口口口 |③-④-|
③口④口 |--⑤-|
①口②口 |⑥-⑦-|
17
口口口口 |--①-|
口①①口 |--②-|
②②②口 |----|
口口口口 |----|
18
口③②口 |①-②-|
①⑤④① |③-④-|
口⑦口口 |⑤---|
⑥口口口 |⑥-⑦-|
19
③③口① |--①-|
口口②口 |②---|
口口口口 |③---|
口口口口 |----|
20
口口⑥⑤ |--①-|
口②①口 |②-③-|
口④③口 |④---|
口口口口 |⑤-⑥-|
21
③口口口 |----|
口①①口 |①---|
②②②口 |②---|
口口口口 |③---|
22
口②口① |①-②-|
口④口③ |③-④-|
口口口口 |--⑤-|
口⑦⑥⑤ |⑥-⑦-|
23
口口口④ |--①-|
口③②① |②-③-|
口口口口 |----|
口口口口 |④---|
24
①口②口 |①-②-|
③口④口 |③-④-|
⑤口口口 |----|
口⑥口口 |⑤-⑥-|
25
口②③口 |--①-|
口④⑤口 |②-③-|
口⑥⑦① |④-⑤-|
口口口口 |⑥-⑦-|
26
①口口① |----|
口口口口 |----|
口口口口 |--①-|
口口口口 |----|
27
口①口口 |①---|
②口口口 |②---|
③口口口 |③---|
口④口口 |④---|
28
口③口③ |①---|
口口口口 |②---|
口口口② |③---|
口口①口 |----|
29
口口①口 |①---|
口②口口 |②---|
口口③口 |③---|
口④口口 |④---|
30
③③口口 |①---|
口口②② |②---|
①①口口 |③---|
口口口口 |----|
31
口口①口 |①---|
口口口② |②---|
口口口③ |③---|
口口④口 |④---|
32
口口口口 |①---|
口口口口 |②---|
②口口口
口①口口

③口③口
口口口口
口口口口 |③---|
口④④口 |--④-|
33
③口口口 |----|
口④④① |①-②-|
口②②口 |----|
口口口口 |③-④-|
34
口②②① |----|
口口口口 |①-②-|
③口口③ |----|
口口口口 |--③-|
35
口①①口 |--①-|
口②②④ |②---|
口口⑤口 |③---|
口③③口 |④-⑤-|
36
③③口口 |--①-|
口口口口 |--②-|
②①口④ |③---|
口口口口 |④---|
37
口口①口 |①---|
口口口① |--②-|
②口口口 |③---|
口口③口 |----|
38
口口口口 |--①-|
①②③④ |②-③-|
⑤⑥⑦口 |④-⑤-|
口口口口 |⑥-⑦-|
39
⑤口②⑤ |①---|
口口口口 |②---|
口③口① |③-④-|
口口④口 |--⑤-|
40
口口口口 |----|
口口②① |--①-|
口口④③ |②-③-|
口口口⑤ |④-⑤-|
41
口口口口 |①---|
②③口口 |--②-|
④⑤口口 |③-④-|
⑥口①口 |⑤-⑥-|
42
口口口口 |①---|
②口口口 |----|
口口口口 |----|
口①口口 |--②-|
43
口口口口 |①---|
口口②口 |--②-|
①④③口 |③---|
口口口口 |--④-|
44
②口口口 |①---|
口口③③ |②-③-|
④④口口 |--④-|
口①⑤⑤ |--⑤-|
45
口①口口 |①---|
①口口口 |--②-|
口口口② |③---|
口③口口 |----|
46
口口口口 |--①-|
口⑦⑥⑤ |②-③-|
④③②① |④-⑤-|
口口口口 |⑥-⑦-|
47
⑤口口⑤ |①---|
①口③口 |②---|
口④口口 |③-④-|
口②口口 |--⑤-|
48
口口口口 |----|
①②口口 |--①-|
③④口口 |②-③-|
⑤口口口 |④-⑤-|
49
口口口口 |①---|
口口③② |--②-|
口口⑤④ |③-④-|
口①口⑥ |⑤-⑥-|
50
口口口口 |①---|
口口口② |----|
口口口口 |----|
口口①口 |--②-|
51
口口⑤④ |①---|
口②口口 |--②-|
口③口① |③---|
口口口口 |④-⑤-|
52
口①口口 |①---|
③③口口 |②-③-|
②口④④ |--④-|
⑤⑤口口 |--⑤-|
53
口口口① |----|
口口②口 |①---|
口③口口 |②---|
口口口口 |③---|
54
口口口口 |①---|
口①口⑤ |②---|
口口②口 |③---|
口④口③ |④-⑤-|
55
口口口口 |①---|
②口口口 |--②-|
③口口① |③---|
口口口口 |----|
56
口②口口 |①---|
口⑤③⑤ |②-③-|
④口⑤口 |--④-|
口①①口 |--⑤-|
57
口口口口 |--①-|
①口口口 |--②-|
口②口④ |--③-|
口口③口 |--④-|
58
④口口④ |--①-|
②③口① |--②-|
口口口口 |③---|
口口口口 |④---|
59
⑤①①⑤ |①---|
③④④③ |②---|
口②②口 |③-④-|
口口口口 |--⑤-|

accuracy: 99.5%
最終更新:2023年01月17日 10:57