アットウィキロゴ
陽炎 -movie version-
サカナクション

BASIC

Level: 3
BPM: 132
Notes: 196

1
口口口口 |----|
口口口口 |----|
口口口口 |----|
口口口口 |----|
2
口口口口 |----|
口口口口 |----|
口①①口 |①---|
口口口口 |----|
3
①口口① |①---|
口口口口 |----|
口口口口 |----|
口口口口 |----|
4
口①口口 |①---|
口口②口 |----|
口口口口 |②---|
口口口口 |----|
5
口口口口 |①---|
口口口口 |----|
口①口口 |②---|
口口②口 |----|
6
口口口口 |①---|
口口口口 |----|
口口口口 |②---|
口①口② |----|
7
②口口② |①---|
口口口口 |----|
口①①口 |②---|
口口口口 |----|
8
口①口口 |①---|
口口②口 |----|
口口口口 |②---|
口口口口 |----|
9
口口口口 |①---|
口口口口 |----|
口①口口 |②---|
口口②口 |----|
10
口口口口 |①---|
口口口口 |----|
口口口口 |----|
口①口口 |----|
11
口口口口 |①---|
口③口① |②---|
④口②口 |③---|
口口口口 |④---|
12
口③口口 |①---|
口口①口 |②---|
口②口口 |----|
口口口口 |③---|
13
口口③口 |①---|
口口①口 |②---|
口②口口 |----|
口口口口 |③---|
14
①口口口 |①---|
口②口口 |②---|
口口③口 |③---|
口口口④ |④---|
15
口口口口 |①---|
口③口① |②---|
④口②口 |③---|
口口口口 |④---|
16
口③口口 |①---|
口口①口 |②---|
口②口口 |----|
口口口口 |③---|
17
口口③口 |①---|
口口①口 |②---|
口②口口 |----|
口口口口 |③---|
18
口口口口 |①---|
口①口口 |②---|
口口②口 |③---|
口③口口 |----|
19
口口口口 |①---|
口①口口 |----|
口②口口 |②---|
口口口口 |----|
20
口口口口 |----|
口口口口 |----|
口口口口 |----|
口口口口 |----|
21
口口口口 |①---|
口口②口 |----|
口口①口 |②---|
口口口口 |----|
22
口口①口 |①---|
口口口口 |----|
口口口口 |----|
口口口口 |----|
23
口口口口 |①---|
口口①口 |----|
口口②口 |②---|
口口口口 |----|
24
口口口口 |----|
口口口口 |----|
口口口口 |----|
口口口口 |----|
25
口口口口 |①---|
口②口口 |----|
口①口口 |②---|
口口口口 |----|
26
口①口口 |①---|
口口口口 |----|
口口口口 |----|
口口口口 |----|
27
口口口① |①---|
口口②口 |----|
口口口口 |②---|
口口口口 |----|
28
口口口口 |①---|
口口口口 |----|
口口口① |②---|
口口②口 |----|
29
口口口口 |①---|
口口口口 |----|
②口口口 |②---|
口①口口 |----|
30
口口口口 |①---|
口①口口 |----|
口口口口 |----|
口口口口 |----|
31
口口①① |①---|
口口②② |----|
口口口口 |②---|
口口口口 |----|
32
口口口口 |①---|
口口口口 |----|
口口①① |----|
口口口口 |----|
33
口口口口 |①---|
口口口口 |----|
②②口口 |②---|
①①口口 |----|
34
口②②口 |①---|
①①口口 |----|
口口口口 |②---|
口口口口 |----|
35
②口口① |①---|
④口口③ |②---|
口口口口 |③---|
口口口口 |④---|
36
口口口口 |①---|
口口口口 |②---|
②④④① |③---|
口③③口 |④---|
37
口①②口 |①---|
口③④口 |②---|
口口口口 |③---|
口口口口 |④---|
38
口口口口 |①---|
口口口口 |②---|
④①②④ |③---|
③口口③ |④---|
39
②口口① |①---|
④口口③ |②---|
口口口口 |③---|
口口口口 |④---|
40
口口口口 |①---|
口口口口 |②---|
②④④① |③---|
口③③口 |④---|
41
口口口口 |①---|
①①①① |----|
②②②② |②---|
口口口口 |----|
42
口口口口 |①---|
①①①① |----|
②②②② |②---|
口口口口 |----|
43
①口口② |①---|
③口口④ |②---|
口口口口 |③---|
口口口口 |④---|
44
口口口口 |①---|
口口口口 |②---|
①④④② |③---|
口③③口 |④---|
45
口①②口 |①---|
口③④口 |②---|
口口口口 |③---|
口口口口 |④---|
46
口口口口 |①---|
口口口口 |②---|
④①②④ |③---|
③口口③ |④---|
47
②口口① |①---|
④口口③ |②---|
口口口口 |③---|
口口口口 |④---|
48
口口口口 |①---|
口口口口 |②---|
②④④① |③---|
口③③口 |④---|
49
口口口口 |①---|
①①①① |----|
②②②② |②---|
口口口口 |----|
50
口口口口 |①---|
①①①① |----|
②②②② |②---|
口口口口 |----|
51
口口口口 |①---|
口③口① |②---|
④口②口 |③---|
口口口口 |④---|
52
口③口口 |①---|
口口①口 |②---|
口②口口 |----|
口口口口 |③---|
53
口口③口 |①---|
口口①口 |②---|
口②口口 |----|
口口口口 |③---|
54
①口口口 |①---|
口②口口 |②---|
口口③口 |③---|
口口口④ |④---|
55
口口口口 |①---|
口③口① |②---|
④口②口 |③---|
口口口口 |④---|
56
口③口口 |①---|
口口①口 |②---|
口②口口 |----|
口口口口 |③---|
57
口口③口 |①---|
口口①口 |②---|
口②口口 |----|
口口口口 |③---|
58
口口口口 |①---|
口①口口 |②---|
口口②口 |③---|
口③口口 |----|

accuarcy: 99.5%
最終更新:2023年01月17日 10:48