アットウィキロゴ
陽炎 -movie version-
サカナクション

ADVANCED

Level: 6
BPM: 132
Notes: 492

1
口口口口 |----|
口口口口 |----|
口口口口 |----|
口口口口 |----|
2
口口口口 |----|
口口口口 |----|
口口口口 |①---|
口①①口 |----|
3
①口口① |①--②|
口③②口 |--③-|
口⑤⑥口 |④--⑤|
口口口④ |--⑥-|
4
口口口口 |①--②|
口③②口 |--③-|
口⑤⑥口 |④--⑤|
①口口④ |--⑥-|
5
口口口口 |①--②|
口③②口 |--③-|
口⑤⑥口 |④--⑤|
①口口④ |--⑥-|
6
口口口口 |①--②|
口③②口 |--③-|
口⑤⑥口 |④--⑤|
①口口④ |--⑥-|
7
④口口④ |①--②|
口②③口 |--③-|
口⑤⑥口 |④--⑤|
口①①口 |--⑥-|
8
口口口口 |①--②|
口③②口 |--③-|
口⑤⑥口 |④--⑤|
①口口④ |--⑥-|
9
口口口口 |①--②|
口③②口 |--③-|
口⑤⑥口 |④--⑤|
①口口④ |--⑥-|
10
①①①① |①---|
口口口口 |----|
口口口口 |----|
口口口口 |----|
11
①①口口 |①---|
③③④④ |--②-|
口口⑥⑥ |③-④-|
⑤⑤②② |⑤-⑥-|
12
①①②② |①-②-|
口口口口 |③---|
③③⑥⑥ |--④-|
⑤⑤④④ |⑤-⑥-|
13
①①②② |①-②-|
口口口口 |③---|
③③⑥⑥ |--④-|
⑤⑤④④ |⑤-⑥-|
14
①①口口 |①---|
口②②口 |②---|
口③③口 |③---|
口口④④ |④---|
15
①①口口 |①---|
③③④④ |--②-|
口口⑥⑥ |③-④-|
⑤⑤②② |⑤-⑥-|
16
①①②② |①-②-|
口口口口 |③---|
③③⑥⑥ |--④-|
⑤⑤④④ |⑤-⑥-|
17
①①②② |①-②-|
口口口口 |③---|
③③⑥⑥ |--④-|
⑤⑤④④ |⑤-⑥-|
18
③①①③ |--①-|
口②②口 |②-③-|
口口口口 |----|
口口口口 |----|
19
口⑥口口 |--①-|
口④⑤口 |②-③-|
口②③口 |④-⑤-|
口口①口 |⑥---|
20
口口口① |----|
口口②口 |----|
口③口口 |--①-|
口口口口 |②-③-|
21
①口④口 |--①-|
口⑤口② |②-③-|
③口⑥口 |④-⑤-|
口⑦口口 |⑥-⑦-|
22
①口口口 |--①-|
口口口口 |----|
口口口口 |----|
口口口口 |----|
23
口口①口 |--①-|
口②③口 |②-③-|
口④⑤口 |④-⑤-|
口⑥口口 |⑥---|
24
口口口口 |----|
口口口③ |----|
②口口口 |--①-|
口口口① |②-③-|
25
⑦①口口 |--①-|
口口②⑥ |②-③-|
⑤③口口 |④-⑤-|
口口口④ |⑥-⑦-|
26
口口①口 |--①-|
口③②口 |----|
口②③口 |--②-|
口口口口 |--③-|
27
口口口① |--①-|
口口②口 |②-③-|
口③口口
口口口口

口口⑦⑦
口⑥口口
口口口口 |④-⑤-|
④口口⑤ |⑥-⑦-|
28
④口口口 |--①-|
口③口口 |----|
口口②口 |--②-|
①①口口 |③-④-|
29
口口⑦口 |--①-|
口⑥①口 |②-③-|
口②⑤口 |④-⑤-|
口④③口 |⑥-⑦-|
30
①①①① |----|
口口口口 |----|
口口③口 |--①-|
口②口口 |②-③-|
31
③口⑦⑦ |--①-|
⑥⑥口② |②-③-|
①口⑤⑤ |④-⑤-|
④④口口 |⑥-⑦-|
32
③口口口 |----|
口①②口 |----|
口②①口 |--①-|
口口口③ |②-③-|
33
口口口① |--①-|
②口口口 |②-③-|
口口口③
口口口口

⑦⑦⑦⑦
口⑥口口
口口⑤口 |④-⑤-|
口④口口 |⑥-⑦-|
34
③口口② |--①-|
口口口口 |----|
③口口② |②---|
①①①① |③---|
35
口②①口 |①-②-|
②口口① |③-④-|
口④③口
④口口③

口口⑤⑤
口口口口
口口口口 |--⑤-|
口口⑥⑥ |--⑥-|
36
①①口口 |--①-|
口⑤④③ |--②-|
口⑤④③ |③-④-|
②②口⑥ |⑤-⑥-|
37
口②③① |①-②-|
②口口③ |③-④-|
口④口口
④口口口

⑦⑦口口
口口口口
口口⑤⑥ |⑤---|
口口口⑤ |⑥-⑦-|
38
口口②② |--①-|
口口口口 |--②-|
口口口口
①①口口

口口口口
③④⑤口
③④⑤口 |③-④-|
⑥口口口 |⑤-⑥-|
39
①③②口 |①-②-|
③口口② |③-④-|
口口④口
口口口④

口口⑦⑦
口口口口
⑥⑤口口 |⑤---|
⑤口口口 |⑥-⑦-|
40
②②口④ |--①-|
⑤⑤⑤⑤ |--②-|
口⑤⑤口 |③---|
③口①① |④-⑤-|
41
口口口口 |----|
③③③③ |①-②-|
口③③口 |----|
②②①① |③---|
42
口口口③ |----|
口口④口 |①-②-|
口⑤口口 |--③-|
②②①① |④-⑤-|
43
口②①口 |--①-|
②口口① |②-③-|
口口③口
口口口③

口口⑥⑥
口口口口
⑤④口口 |④---|
④口口口 |⑤-⑥-|
44
②②口口 |--①-|
口口口口 |--②-|
口口口口
口口①①

口口口口
口⑤④③
口⑤④③ |③-④-|
口口口⑥ |⑤-⑥-|
45
口②③① |①-②-|
②口口③ |③-④-|
口④口口
④口口口

⑦⑦口口
口口口口
口口⑤⑥ |⑤---|
口口口⑤ |⑥-⑦-|
46
口口②② |--①-|
口口口口 |--②-|
口口口口
①①口口

口口口口
③④⑤口
③④⑤口 |③-④-|
⑥口口口 |⑤-⑥-|
47
①③②口 |①-②-|
③口口② |③-④-|
口口④口
口口口④

口口⑦⑦
口口口口
⑥⑤口口 |⑤---|
⑤口口口 |⑥-⑦-|
48
②②口④ |--①-|
⑤⑤⑤⑤ |--②-|
口⑤⑤口 |③---|
③口①① |④-⑤-|
49
口口口口 |----|
③③③③ |①-②-|
口③③口 |----|
②②①① |③---|
50
口口口口 |----|
口口口口 |①-②-|
口口口口 |----|
②②①① |----|
51
①①口口 |①---|
③③④④ |--②-|
口口⑥⑥ |③-④-|
⑤⑤②② |⑤-⑥-|
52
①①②② |①-②-|
口口口口 |③---|
③③⑥⑥ |--④-|
⑤⑤④④ |⑤-⑥-|
53
①①②② |①-②-|
口口口口 |③---|
③③⑥⑥ |--④-|
⑤⑤④④ |⑤-⑥-|
54
①①口口 |①---|
口②②口 |②---|
口③③口 |③---|
口口④④ |④---|
55
①①口口 |①---|
③③④④ |--②-|
口口⑥⑥ |③-④-|
⑤⑤②② |⑤-⑥-|
56
①①②② |①-②-|
口口口口 |③---|
③③⑥⑥ |--④-|
⑤⑤④④ |⑤-⑥-|
57
①①②② |①-②-|
口口口口 |③---|
③③⑥⑥ |--④-|
⑤⑤④④ |⑤-⑥-|
58
③①①③ |--①-|
口②②口 |②-③-|
口口口口 |----|
口口口口 |----|

accuracy: 99.5%
最終更新:2023年01月17日 10:49