アットウィキロゴ
陽炎 -movie version-
サカナクション

EXTREME

Level: 8
BPM: 132
Notes: 631

1
口口口口 |----|
口口口口 |----|
口口口口 |----|
口口口口 |----|
2
口口口口 |----|
口口口口 |----|
口口口口 |①---|
①口口① |----|
3
①①①① |①--②|
③⑥⑤② |--③-|
口①①口 |④--⑤|
口④④口 |--⑥-|
4
口口口口 |①--②|
③⑥⑤② |--③-|
口口口口 |④--⑤|
①④④① |--⑥-|
5
口口口口 |①--②|
③⑥⑤② |--③-|
口口口口 |④--⑤|
①④④① |--⑥-|
6
口口口口 |①--②|
③⑥⑤② |--③-|
口⑧⑦口 |④--⑤|
①④④① |⑥⑦⑧-|
7
口口口口 |①--②|
口口口口 |③-④-|
④口口②
①口③①

⑤⑤⑤⑤
⑧口口⑥
口⑤⑤⑦ |⑤--⑥|
口口口口 |⑦-⑧-|
8
口口③口 |①--②|
⑧④②⑥ |③-④-|
口口口⑦ |⑤--⑥|
⑤①①⑤ |⑦-⑧-|
9
口口③口 |①--②|
口④②口 |③-④-|
口口口口
口①①口

口⑫⑪口
⑩口口⑨
口⑧⑦口 |⑤⑥⑦⑧|
⑥口口⑤ |⑨⑩⑪⑫|
10
①口口① |①-②-|
口①①口 |-③--|
①口口①
②③口口

口口口口
口口口口
口口口⑥ |④--⑤|
口口④⑤ |--⑥-|
11
口①口① |①-②-|
口口③② |③-④-|
①口口口
④④口口

⑥⑧⑤⑦
口口口口
⑧⑥⑦⑤ |⑤-⑥-|
口口口口 |⑦-⑧-|
12
⑤⑦⑧⑥ |①-②-|
口③②① |③-④-|
⑦口⑥⑧ |⑤-⑥-|
④③②① |⑦-⑧-|
13
⑥⑧⑦⑤ |①-②-|
①②③口 |③-④-|
⑧⑥口⑦ |⑤-⑥-|
①②③④ |⑦-⑧-|
14
口口口口 |①---|
②口①① |②---|
口②③口 |③---|
④④口③ |④---|
15
口①口① |①-②-|
口口③② |③-④-|
①口口口
④④口口

⑥⑧⑤⑦
口口口口
⑧⑥⑦⑤ |⑤-⑥-|
口口口口 |⑦-⑧-|
16
⑤⑦⑧⑥ |①-②-|
口③②① |③-④-|
⑦口⑥⑧ |⑤-⑥-|
④③②① |⑦-⑧-|
17
口口口口 |①-②-|
①②③口 |③-④-|
口口口口
①②③④

⑥口⑦⑤
口口口口
口⑥口⑦ |⑤-⑥-|
口⑧⑧口 |⑦-⑧-|
18
⑤口口④ |--①-|
②③③① |②-③-|
口③③口 |--④-|
②口口① |⑤---|
19
口口②⑧ |①-②-|
口③④口 |③-④-|
口⑤⑥口 |⑤-⑥-|
口⑦①① |⑦-⑧-|
20
③②①口 |①-②-|
口⑤口④ |③---|
口口⑥口 |--④-|
口④口⑤ |⑤-⑥-|
21
①口口口 |--①-|
口口口口 |②-③-|
口③口口
②口口口

⑦⑦口⑤
口口④口
⑥口口口 |④-⑤-|
口口口口 |⑥-⑦-|
22
口④口口 |--①-|
口口口口 |----|
②口口口 |②-③-|
口③①① |--④-|
23
口口口① |--①-|
②口口③ |②-③-|
口口口口
口口口口

口口口⑦
口口口口
④口口⑤ |④-⑤-|
⑥口口口 |⑥-⑦-|
24
③②①口 |①-②-|
口口口⑥ |③---|
口口⑤口 |--④-|
口口口④ |⑤-⑥-|
25
⑦⑦口口 |--①-|
①口口⑥ |②-③-|
⑤②口口 |④-⑤-|
③口④口 |⑥-⑦-|
26
口③口③ |--①-|
口②③口 |----|
②口②口 |--②-|
口口①① |--③-|
27
①口①口 |--①-|
口口口口 |②-③-|
口口口③
口口口②

⑦⑦口口
口口⑦④
口⑤口口 |④-⑤-|
口口⑥口 |⑥-⑦-|
28
口口①① |--①-|
②①口口 |----|
口口③③ |--②-|
④④口口 |③-④-|
29
口②口① |--①-|
口⑥③口 |②-③-|
口④⑦口 |④-⑤-|
口口⑤口 |⑥-⑦-|
30
口口①① |----|
口②口① |----|
①口③口 |--①-|
①①口口 |②-③-|
31
①口口口 |--①-|
口口②口 |②-③-|
口③口口
口口口口

⑦⑦⑦⑦
口⑥口⑥
口口⑤⑤ |④-⑤-|
口口④④ |⑥-⑦-|
32
②③③① |----|
口②①口 |----|
口①②口 |--①-|
①③③② |②-③-|
33
口口口③ |--①-|
②口口口 |②-③-|
口口口①
口口口口

口⑥⑥口
⑦⑤⑤⑦
口④④口 |④-⑤-|
口⑦⑦口 |⑥-⑦-|
34
①②③① |--①-|
②②③③ |----|
①②③① |②---|
口口口口 |③---|
35
①⑥口③ |①-②-|
⑧口⑤口 |③-④-|
口②④口 |⑤-⑥-|
⑦③①口 |⑦-⑧-|
36
口口②口 |①-②-|
口①口④ |③-④-|
口口口口
口口口③

口口⑦⑦
口⑥口口
⑤口⑥口 |⑤-⑥-|
口⑤⑧口 |⑦-⑧-|
37
①③口口 |①-②-|
口口口② |③-④-|
②口④口
口口口③

⑥口⑤口
口⑧⑦口
口口口口 |⑤-⑥-|
⑤⑦⑧口 |⑦-⑧-|
38
口口②② |①-②-|
口口口④ |③-④-|
③①口口
口口口口

⑦⑦口口
口口⑥口
口⑥口⑤ |⑤-⑥-|
口口⑤⑧ |⑦-⑧-|
39
口口③① |①-②-|
②口口口 |③-④-|
口④口口
③口口口

口⑤⑧口
口口⑥⑧
⑦口口口 |⑤-⑥-|
口⑦口⑤ |⑦-⑧-|
40
口口口口 |①-②-|
①口口口 |③-④-|
口口②口
③④④②

口⑧⑧⑥
⑦⑤⑤口
口⑧⑧口 |⑤-⑥-|
口口口口 |⑦-⑧-|
41
⑤⑦⑦⑥ |①-②-|
口③④口 |③-④-|
③⑦⑦④ |⑤-⑥-|
⑧口②① |⑦-⑧-|
42
口口口口 |①-②-|
口④③口 |③-④-|
④口口③
口②口①

口口口口
口口口⑦
口口⑥口 |--⑤-|
口口口⑤ |⑥-⑦-|
43
①⑥口③ |①-②-|
⑧口⑤口 |③-④-|
口②④口 |⑤-⑥-|
⑦③①口 |⑦-⑧-|
44
口口②口 |①-②-|
口①口④ |③-④-|
口口口口
口口口③

口口⑦⑦
口⑥口口
⑤口⑥口 |⑤-⑥-|
口⑤⑧口 |⑦-⑧-|
45
①③口口 |①-②-|
口口口② |③-④-|
②口④口
口口口③

⑥口⑤口
口⑧⑦口
口口口口 |⑤-⑥-|
⑤⑦⑧口 |⑦-⑧-|
46
口口②② |①-②-|
口口口④ |③-④-|
③①口口
口口口口

⑦⑦口口
口口⑥口
口⑥口⑤ |⑤-⑥-|
口口⑤⑧ |⑦-⑧-|
47
口口③① |①-②-|
②口口口 |③-④-|
口④口口
③口口口

口⑤⑧口
口口⑥⑧
⑦口口口 |⑤-⑥-|
口⑦口⑤ |⑦-⑧-|
48
口口口口 |①-②-|
①口口口 |③-④-|
口口②口
③④④②

口⑧⑧⑥
⑦⑤⑤口
口⑧⑧口 |⑤-⑥-|
口口口口 |⑦-⑧-|
49
⑤⑦⑦⑥ |①-②-|
口③④口 |③-④-|
③⑦⑦④ |⑤-⑥-|
⑧口②① |⑦-⑧-|
50
④口口④ |①-②-|
口④④口 |③-④-|
④口口④
口②③①

口口⑤口
⑧口口口
口⑥⑦口 |⑤-⑥⑦|
口口⑨口 |-⑧-⑨|
51
口①口① |①-②-|
口口③② |③-④-|
①口口口
④④口口

⑥⑧⑤⑦
口口口口
⑧⑥⑦⑤ |⑤-⑥-|
口口口口 |⑦-⑧-|
52
⑤⑦⑧⑥ |①-②-|
口③②① |③-④-|
⑦口⑥⑧ |⑤-⑥-|
④③②① |⑦-⑧-|
53
⑥⑧⑦⑤ |①-②-|
①②③口 |③-④-|
⑧⑥口⑦ |⑤-⑥-|
①②③④ |⑦-⑧-|
54
口口口口 |①---|
②口①① |②---|
口②③口 |③---|
④④口③ |④---|
55
口①口① |①-②-|
口口③② |③-④-|
①口口口
④④口口

⑥⑧⑤⑦
口口口口
⑧⑥⑦⑤ |⑤-⑥-|
口口口口 |⑦-⑧-|
56
⑤⑦⑧⑥ |①-②-|
口③②① |③-④-|
⑦口⑥⑧ |⑤-⑥-|
④③②① |⑦-⑧-|
57
口口口口 |①-②-|
①②③口 |③-④-|
口口口口
①②③④

⑥口⑦⑤
口口口口
口⑥口⑦ |⑤-⑥-|
口⑧⑧口 |⑦-⑧-|
58
③口口③ |--①-|
②③③① |②-③-|
③口口③ |----|
②口口① |----|

accuracy: 99.5%
最終更新:2023年01月17日 10:50