アットウィキロゴ
片目で異常に恋してる
ジェニーハイ

BASIC

Level: 3
BPM: 132
Notes: 172

1
口口口口 |----|
口口口口 |----|
口口口口 |----|
口口口口 |----|
2
口口口口 |①---|
①①②② |----|
口口口口 |②---|
口口口口 |----|
3
口口口口 |①---|
口口口口 |----|
口①口口 |②---|
口口②口 |----|
4
口口口口 |①---|
口口口口 |----|
口口②口 |②---|
口①口口 |----|
5
口口②口 |①---|
口①口口 |----|
口口口口 |②---|
口口口口 |----|
6
口口口口 |①---|
①①②② |----|
口口口口 |②---|
口口口口 |----|
7
口口口口 |①---|
口口口口 |----|
口①口口 |②---|
口口②口 |----|
8
口口口口 |①---|
口口口口 |----|
口口②口 |②---|
口①口口 |----|
9
口口口口 |①---|
口①口口 |----|
口口口口 |----|
口口口口 |----|
10
④③②① |①---|
口口口口 |②---|
口口口口 |③---|
口口口口 |④---|
11
口口口口 |①---|
①②③④ |②---|
口口口口 |③---|
口口口口 |④---|
12
口口口口 |①---|
口口口口 |②---|
④③②① |③---|
口口口口 |④---|
13
口口口口 |①---|
口口口口 |----|
口口口口 |②---|
①口②口 |----|
14
口口口口 |①---|
口口口口 |②---|
口口口口 |③---|
①②③④ |④---|
15
口口口口 |①---|
口口口口 |②---|
④③②① |③---|
口口口口 |④---|
16
口口口口 |①---|
①②③④ |②---|
口口口口 |③---|
口口口口 |④---|
17
口②口① |①---|
口口口口 |----|
口口口口 |②---|
口口口口 |----|
18
口口口口 |①---|
口口①口 |----|
口②口口 |②---|
口口口口 |----|
19
口口①① |①---|
口口②② |----|
口口口口 |②---|
口口口口 |----|
20
口口口口 |①---|
口①口口 |----|
口口②口 |②---|
口口口口 |----|
21
①①口口 |①---|
②②口口 |----|
口口口口 |②---|
口口口口 |----|
22
口口口口 |①---|
口口①口 |----|
口②口口 |②---|
口口口口 |----|
23
口口①① |①---|
口口②② |----|
口口口口 |②---|
口口口口 |----|
24
口口口口 |①---|
口①口口 |----|
口口②口 |②---|
口口口口 |----|
25
①①口口 |①---|
②②口口 |----|
口口口口 |②---|
口口口口 |----|
26
口口口口 |①---|
口口②② |----|
口口①口 |----|
口口口口 |②---|
27
口口口口 |①---|
②②口口 |----|
口①口口 |----|
口口口口 |②---|
28
口口口口 |①---|
口口②② |----|
口口①口 |----|
口口口口 |②---|
29
口口口口 |①---|
口口口口 |----|
口①②口 |②---|
口口口口 |----|
30
口口口口 |①---|
②②口口 |----|
口①口口 |----|
口口口口 |②---|
31
口口口口 |①---|
口口②② |----|
口口①口 |----|
口口口口 |②---|
32
口口口口 |①---|
②②口口 |----|
口①口口 |----|
口口口口 |②---|
33
口口口口 |①---|
口口口口 |②---|
口②①口 |③---|
④口③口 |④---|
34
口口口口 |①---|
口①口口 |②---|
口口②口 |③---|
口口④③ |④---|
35
口口口口 |①---|
口口口口 |②---|
口口③口 |----|
②①口口 |③---|
36
口口口① |①---|
口口②口 |②---|
口③④口 |③---|
口口口口 |④---|
37
口口口口 |①---|
口口口口 |----|
口口口① |----|
口口口口 |----|
38
口④④口 |①---|
口③③口 |②---|
口②②口 |③---|
口①①口 |④---|
39
④口口④ |①---|
③口口③ |②---|
②口口② |③---|
①口口① |④---|
40
口口口口 |①---|
口①①口 |----|
口②②口 |②---|
口口口口 |----|
41
口口口口 |①---|
口①①口 |----|
口口口口 |----|
口口口口 |----|
42
口口口口 |①---|
②②①① |----|
口口口口 |②---|
口口口口 |----|
43
口口口口 |①---|
口口口口 |②---|
口口①口 |③---|
④②③口 |④---|
44
口口口口 |①---|
口④③口 |②---|
口②①口 |③---|
口口口口 |④---|
45
口口口① |①---|
口口口② |②---|
口口口③ |③---|
口口口④ |④---|
46
口口口口 |①---|
①①②② |----|
口口口口 |②---|
口口口口 |----|
47
口口口口 |①---|
口口口口 |②---|
口①口口 |③---|
口③②④ |④---|
48
口口口口 |①---|
口③④口 |②---|
口①②口 |③---|
口口口口 |④---|
49
口①口口 |①---|
口口口口 |----|
口口口口 |----|
口口口口 |----|
50
④③②① |①---|
口口口口 |②---|
口口口口 |③---|
口口口口 |④---|
51
口口口口 |①---|
①②③④ |②---|
口口口口 |③---|
口口口口 |④---|
52
口口口口 |①---|
口口口口 |②---|
④③②① |③---|
口口口口 |④---|
53
口口口口 |①---|
口口口口 |----|
口口口口 |②---|
①口②口 |----|

accuracy: 99.5%
最終更新:2023年01月17日 10:51