アットウィキロゴ
片目で異常に恋してる
ジェニーハイ

ADVANCED

Level: 7
BPM: 132
Notes: 374

1
口口口口 |----|
口口口口 |----|
口口口口 |----|
口口口口 |----|
2
④口口② |①---|
口口口口 |②-③-|
口③③口 |---④|
⑤①①口 |--⑤-|
3
口口①口 |①-②-|
口②口口 |③-④-|
口口③⑦ |⑤---|
口④⑤⑥ |⑥-⑦-|
4
③口⑤① |①-②-|
口⑥⑦口 |③-④-|
②口口口 |⑤-⑥-|
口⑧④口 |⑦-⑧-|
5
口④口④ |①---|
③口③口 |②---|
口②口② |③---|
①口①口 |④---|
6
口口口口 |①---|
④口口② |②-③-|
口①①口 |---④|
⑤③③口 |--⑤-|
7
口口①口 |①-②-|
口②口口 |③-④-|
口口③口
口④口口

口口口口
口口口口
口口⑥口 |----|
口口口⑤ |⑤-⑥-|
8
①①⑤⑤ |①-②-|
口③⑦口 |③-④-|
口⑧口口 |⑤-⑥-|
②⑥④口 |⑦-⑧-|
9
①①口口 |①---|
口口口口 |②---|
②口口②
口口口口

④口口④
③口口③
口口口口 |③---|
口口口口 |④---|
10
⑤③口口 |①-②-|
⑦①口口 |③-④-|
口口②⑧ |⑤-⑥-|
口口④⑥ |⑦-⑧-|
11
口口⑥④ |①-②-|
口口⑧② |③-④-|
①⑦口口 |⑤-⑥-|
③⑤口口 |⑦-⑧-|
12
⑤③口口 |①-②-|
⑦①口口 |③-④-|
口口②⑧ |⑤-⑥-|
口口④⑥ |⑦-⑧-|
13
⑤③③⑥ |①--②|
口①②口 |-③-④|
口①②口 |----|
口④④口 |⑤-⑥-|
14
⑤③口口 |①-②-|
⑦①口口 |③-④-|
口口②⑧ |⑤-⑥-|
口口④⑥ |⑦-⑧-|
15
口口⑥④ |①-②-|
口口⑧② |③-④-|
①⑦口口 |⑤-⑥-|
③⑤口口 |⑦-⑧-|
16
⑤③口口 |①-②-|
⑦①口口 |③-④-|
口口②⑧ |⑤-⑥-|
口口④⑥ |⑦-⑧-|
17
③③口口 |①--②|
口①②口 |-③-④|
口①②口 |----|
口口④④ |----|
18
口口口⑤ |①-②-|
①②口⑥ |③-④-|
④③口⑦ |⑤-⑥-|
口口口⑧ |⑦-⑧-|
19
口①口口 |①-②-|
口⑤②口 |③-④-|
口③口口 |⑤---|
口口④口 |----|
20
口口口口 |①-②-|
口口口口 |③-④-|
口口口口
④③②①

口口口⑤
口口口⑥
口口口⑦ |⑤-⑥-|
口口口⑧ |⑦-⑧-|
21
口①口口 |①-②-|
⑤口②口 |③-④-|
口③口口 |⑤---|
口口④口 |----|
22
⑤口口① |①-②-|
口⑥②口 |③-④-|
口③⑦口 |⑤-⑥-|
④口口⑧ |⑦-⑧-|
23
口①口口 |①-②-|
⑤口②口 |③-④-|
口③口口 |⑤---|
口口④口 |----|
24
⑤口①口 |①-②-|
口口③⑥ |③-④-|
⑦口②口 |⑤-⑥-|
口口④⑧ |⑦-⑧-|
25
口①口口 |①-②-|
⑤口②口 |③-④-|
口③口口 |⑤---|
口口④口 |----|
26
口口口④ |①---|
③口⑤口 |②---|
②⑥口口 |③-④-|
①口口口 |⑤-⑥-|
27
④口口口 |①---|
口⑤口③ |②---|
口口⑥② |③-④-|
口口口① |⑤-⑥-|
28
口口口④ |①---|
③口⑤口 |②---|
②⑥口口 |③-④-|
①口口口 |⑤-⑥-|
29
口口口口 |①---|
口口口口 |②---|
口③③口 |③---|
②口口① |----|
30
④口口口 |①---|
口⑤口③ |②---|
口口⑥② |③-④-|
口口口① |⑤-⑥-|
31
口口口④ |①---|
③口⑤口 |②---|
②⑥口口 |③-④-|
①口口口 |⑤-⑥-|
32
口口口④ |①---|
口口口③ |②---|
口口口② |③---|
口口口① |④---|
33
口口口口 |①---|
口①①⑤ |----|
口②②④ |②-③-|
口口口③ |④-⑤-|
34
口①①口 |①---|
②口③口 |②-③-|
口口⑥口 |--④-|
口④口⑤ |⑤-⑥-|
35
②④口③ |①-②-|
口①⑤口 |③---|
口⑥口口 |--④-|
口口口口 |⑤-⑥-|
36
②口口① |①-②-|
④口口③ |③-④-|
⑥口口⑤ |⑤-⑥-|
⑧口口⑦ |⑦-⑧-|
37
口口口口 |①-②-|
口口口口 |----|
口口口口 |----|
口②①口 |----|
38
①口口② |①---|
①口口② |②---|
口③④口 |③---|
口③④口 |④---|
39
①①②口 |①---|
口①②口 |②---|
口口口④ |③---|
口③口④ |④---|
40
①口②口 |①---|
①口②口 |----|
口口口口 |②---|
口口口口 |----|
41
口④④口 |①-②-|
⑦③③⑦ |③-④-|
⑥②②⑥ |⑤-⑥-|
⑤①①⑤ |⑦---|
42
④口口② |①---|
口口口口 |②-③-|
口③③口 |---④|
⑤①①口 |--⑤-|
43
口口①口 |①-②-|
口②口口 |③-④-|
口口③⑦ |⑤---|
口④⑤⑥ |⑥-⑦-|
44
③口⑤① |①-②-|
口⑥⑦口 |③-④-|
②口口口 |⑤-⑥-|
口⑧④口 |⑦-⑧-|
45
口④口④ |①---|
③口③口 |②---|
口②口② |③---|
①口①口 |④---|
46
口口口口 |①---|
④口口② |②-③-|
口①①口 |---④|
⑤③③口 |--⑤-|
47
口口①口 |①-②-|
口②口口 |③-④-|
口口③口
口④口口

口口口口
口口口口
口口⑥口 |----|
口口口⑤ |⑤-⑥-|
48
①①⑤⑤ |①-②-|
口③⑦口 |③-④-|
口⑧口口 |⑤-⑥-|
②⑥④口 |⑦-⑧-|
49
①①口口 |①---|
口口口口 |②---|
②口口②
口口口口

④口口④
③口口③
口口口口 |③---|
口口口口 |④---|
50
⑤③口口 |①-②-|
⑦①口口 |③-④-|
口口②⑧ |⑤-⑥-|
口口④⑥ |⑦-⑧-|
51
口口⑥④ |①-②-|
口口⑧② |③-④-|
①⑦口口 |⑤-⑥-|
③⑤口口 |⑦-⑧-|
52
⑤③口口 |①-②-|
⑦①口口 |③-④-|
口口②⑧ |⑤-⑥-|
口口④⑥ |⑦-⑧-|
53
口③③口 |①--②|
口①②口 |-③-④|
口①②口 |----|
口④④口 |----|

accuracy: 99.5%
最終更新:2023年01月17日 10:52