アットウィキロゴ
片目で異常に恋してる
ジェニーハイ

EXTREME

Level: 9.1
BPM: 132
Notes: 544

1
口口口口 |----|
口口口口 |----|
口口口口 |----|
口口口口 |----|
2
①②⑤⑥ |①②③-|
③口⑧口 |④-⑤⑥|
口口④⑩ |-⑦-⑧|
口⑦⑨口 |--⑨⑩|
3
①②口口 |①②③④|
③④口口 |⑤⑥⑦⑧|
⑤⑥口口
⑦⑧口口

口口口口
⑩口口口
口口口口 |----|
口口口⑨ |⑨-⑩-|
4
⑤口口① |①-②-|
口③⑦口 |③-④-|
⑧口④口 |⑤-⑥-|
口⑥②口 |⑦-⑧-|
5
④④口口 |①---|
口③③口 |②---|
口②②口 |③---|
口口①① |④---|
6
⑩⑩②① |①②③④|
口口④③ |⑤-⑥⑦|
⑫⑧⑦⑤ |⑧⑨-⑩|
⑥⑪⑨口 |--⑪⑫|
7
口口②① |①②③④|
口口④③ |⑤-⑥⑦|
口口口⑤
⑥口⑦口

口口⑧口
口口口口
口⑨口口 |----|
口口口口 |⑧-⑨-|
8
口口口① |①-②-|
①②④口 |③-④-|
口口口①
①口③口

⑦口⑤口
口口口⑤
⑤⑥口口 |⑤-⑥-|
⑧⑤口口 |⑦-⑧-|
9
④①口口 |①---|
①②③口 |②---|
口③②① |③---|
口口①④ |④---|
10
⑦口口② |①-②-|
⑤口口④ |③-④-|
③口口⑥ |⑤-⑥-|
①口口⑧ |⑦-⑧-|
11
口①③⑤ |①-②-|
口口口⑦ |③-④-|
⑧口口口 |⑤-⑥-|
⑥④②口 |⑦-⑧-|
12
④⑥⑧口 |①-②-|
②口口口 |③-④-|
口口口① |⑤-⑥-|
口⑦⑤③ |⑦-⑧-|
13
⑦口口④ |①②③④|
口⑦④口 |-⑤⑥⑦|
⑤①②⑥
③口口口

口⑨⑧口
口口口口
口口⑩口 |-⑧⑨-|
口⑪⑫口 |⑩⑪⑫-|
14
⑦口口② |①-②-|
⑤口口④ |③-④-|
③口口⑥ |⑤-⑥-|
①口口⑧ |⑦-⑧-|
15
口①③⑤ |①-②-|
口口口⑦ |③-④-|
⑧口口口 |⑤-⑥-|
⑥④②口 |⑦-⑧-|
16
④⑥⑧口 |①-②-|
②口口口 |③-④-|
口口口① |⑤-⑥-|
口⑦⑤③ |⑦-⑧-|
17
⑤口口⑤ |①②③④|
口④④口 |-⑤-⑥|
口②①口 |----|
口⑥⑥③ |----|
18
口口口口 |①②③④|
①②⑤⑥ |-⑤-⑥|
④③⑥⑤
口口口口

口⑦⑩⑧
口口口口
口⑨口口 |-⑦-⑧|
⑧口⑦口 |-⑨-⑩|
19
⑨口口⑧ |①②③④|
①⑦口⑤ |-⑤⑥⑦|
口口⑥② |⑧---|
口③口④ |⑨---|
20
口口⑦口 |①②③④|
⑦口口口 |⑤⑥-⑦|
口②⑥④
①⑤③口

⑨⑧口⑩
口⑩⑨⑧
口口口口 |-⑧-⑨|
口⑪口口 |-⑩-⑪|
21
⑧口口⑨ |①②③④|
口口⑤口 |-⑤⑥⑦|
②⑥口① |⑧---|
④口⑦③ |⑨---|
22
⑦口口口 |①②③④|
⑤①⑥④ |-⑤⑥⑦|
⑦口②口
⑤④口③

口⑧⑨口
口⑩口口
口⑩⑬⑪ |-⑧⑨⑩|
口⑫口口 |-⑪⑫⑬|
23
③④口③ |①②-③|
口口⑤② |-④⑤⑥|
口⑥口口 |⑦---|
⑧口①⑦ |⑧---|
24
口①③① |①-②③|
⑥口口⑥ |-④⑤⑥|
口②①口
口④⑤口

⑩口口口
口⑧⑦口
口⑨⑨口 |-⑦-⑧|
⑦口口⑧ |-⑨-⑩|
25
口⑥⑤③ |①②③④|
⑥口口⑤ |-⑤⑥⑦|
②口⑦① |⑧---|
⑧④口⑨ |⑨---|
26
口⑤口口 |①---|
③口④④ |②---|
②口⑤⑤ |③-④-|
口①⑥⑥ |⑤-⑥-|
27
④⑤①口 |①---|
⑥口⑦② |②---|
口口口③ |③-④⑤|
口口⑥口 |⑥-⑦-|
28
口⑥口口 |①---|
③口⑤④ |②---|
②⑦口⑥ |③-④⑤|
口①口口 |⑥-⑦-|
29
④口⑥③ |①-②-|
③⑦口④ |-③-④|
⑤口⑧⑤ |--⑤-|
①①②② |⑥⑦⑧-|
30
口⑥口口 |①---|
③⑦口口 |②---|
②口⑤④ |③-④⑤|
口①口⑥ |⑥-⑦-|
31
④⑤①口 |①---|
⑥口⑦② |②---|
口口口③ |③-④⑤|
口口⑥口 |⑥-⑦-|
32
口⑧⑦口 |①---|
④⑥⑤② |②-③-|
②口③口 |④⑤⑥⑦|
⑩①⑪⑨ |⑧⑨⑩⑪|
33
②口④① |①-②-|
③⑦口③ |-③-④|
①口⑥② |--⑤-|
口④口⑤ |⑥-⑦-|
34
①①口口 |①---|
①口口口 |②-③-|
③②口口
②③口口

④口口⑤
口口⑥⑤
口口⑥口 |--④-|
口口口口 |⑤-⑥-|
35
口①②口 |①-②-|
口①口口 |③---|
口口口口
③口口口

口口口口
口⑥口⑥
⑤口⑤口 |--④-|
口④口④ |⑤-⑥-|
36
①①③③ |①-②-|
⑤⑦⑤⑦ |③-④-|
口口口口 |⑤-⑥-|
②⑥⑧④ |⑦-⑧-|
37
口①②口 |①-②-|
口口口口 |----|
口①②口 |----|
口口口口 |----|
38
①①②② |①---|
①①②② |②---|
③③④④ |③---|
③③④④ |④---|
39
①①口② |①---|
①口口② |②---|
口口④④ |③---|
③口④④ |④---|
40
①①口口 |①---|
①①②口 |----|
口②口口 |②---|
口口口口 |----|
41
①①⑤④ |①-②-|
②⑥⑦③ |③-④-|
③⑦⑥② |⑤-⑥-|
④⑤①① |⑦---|
42
①②⑤⑥ |①②③-|
③口⑧口 |④-⑤⑥|
口口④⑩ |-⑦-⑧|
口⑦⑨口 |--⑨⑩|
43
①②口口 |①②③④|
③④口口 |⑤⑥⑦⑧|
⑤⑥口口
⑦⑧口口

口口口口
⑫口口⑨
口口⑩口 |⑨-⑩-|
口口口⑪ |⑪-⑫-|
44
⑤口口① |①-②-|
口③⑦口 |③-④-|
⑧口④口 |⑤-⑥-|
口⑥②口 |⑦-⑧-|
45
⑦⑦口口 |①-②-|
⑥⑤⑤口 |③-④-|
口③③④ |⑤-⑥-|
②⑧①① |⑦-⑧-|
46
⑩⑩②① |①②③④|
口口④③ |⑤-⑥⑦|
⑫⑧⑦⑤ |⑧⑨-⑩|
⑥⑪⑨口 |--⑪⑫|
47
口口②① |①②③④|
口口④③ |⑤-⑥⑦|
口口口⑤
⑥口⑦口

⑧口⑩口
口口口口
口⑪口口 |⑧-⑨-|
口⑨口口 |⑩-⑪-|
48
⑤①⑤① |①-②-|
②⑥②⑥ |③-④-|
④⑧③⑦ |⑤-⑥-|
⑦③⑧④ |⑦-⑧-|
49
②②③③ |①-②-|
口口⑦口 |③-④-|
口⑥①口 |⑤-⑥-|
④①口⑤ |⑦---|
50
⑦口口② |①-②-|
⑤口口④ |③-④-|
③口口⑥ |⑤-⑥-|
①口口⑧ |⑦-⑧-|
51
口①③⑤ |①-②-|
口口口⑦ |③-④-|
⑧口口口 |⑤-⑥-|
⑥④②口 |⑦-⑧-|
52
④⑥⑧口 |①-②-|
②口口口 |③-④-|
口口口① |⑤-⑥-|
口⑦⑤③ |⑦-⑧-|
53
⑦口口④ |①②③④|
⑦⑦④④ |-⑤⑥⑦|
⑤①②⑥ |----|
③口口口 |----|

accuracy: 99.5%
最終更新:2023年01月17日 10:52