アットウィキロゴ
ギラメタスでんぱスターズ
でんぱ組.inc

BASIC

Level: 3
BPM: 200
Notes: 202

1
口口口口 |----|
口口口口 |----|
口口口口 |----|
口口口口 |----|
2
口口口口 |----|
口口口口 |----|
口口口口 |----|
口口口口 |----|
3
口口口口 |----|
口口口口 |----|
口口口口 |----|
口口口口 |----|
4
口口口口 |----|
口口口口 |----|
口口口口 |----|
口口口口 |----|
5
口口口口 |①---|
口口口口 |②---|
口④③口 |③---|
口②①口 |④---|
6
口④③口 |①---|
口②①口 |②---|
口口口口 |③---|
口口口口 |④---|
7
口口口口 |----|
口口口口 |----|
口口口口 |----|
口口口口 |----|
8
②口口① |①---|
口口口口 |----|
口口口口 |②---|
口口口口 |----|
9
口口①口 |①---|
口口口口 |----|
口口②口 |----|
口口口口 |②---|
10
口口口口 |----|
①②口口 |----|
口口口口 |①---|
口口口口 |②---|
11
②口①口 |①---|
口口口口 |----|
口口口口 |----|
口口口口 |②---|
12
口口①口 |①---|
口②口口 |②---|
口口③口 |③---|
口④口口 |④---|
13
口口①口 |①---|
口口口口 |----|
口口②口 |----|
口口口口 |②---|
14
口口口口 |----|
①②口口 |----|
口口口口 |①---|
口口口口 |②---|
15
口口①口 |①---|
②口口口 |----|
口口口口 |----|
口口口口 |②---|
16
口口①口 |①---|
口②口口 |②---|
口口③口 |③---|
口④口口 |④---|
17
口口口口 |①---|
②口①口 |----|
口口口口 |②---|
口口口口 |----|
18
口口口口 |①---|
口口口口 |----|
②口①口 |②---|
口口口口 |----|
19
口口口口 |①---|
口口口口 |----|
口口口口 |②---|
②口①口 |----|
20
口口口口 |①---|
口①①口 |----|
口②②口 |②---|
口口口口 |----|
21
口口口口 |①---|
口①口② |----|
口口口口 |②---|
口口口口 |----|
22
口口口口 |①---|
口口口口 |----|
口①口② |②---|
口口口口 |----|
23
口口口口 |①---|
口口口口 |----|
口口口口 |②---|
口①口② |----|
24
口口口口 |①---|
口①①口 |----|
口②②口 |②---|
口口口口 |----|
25
口口口口 |①---|
②口口① |----|
口口口口 |②---|
口口口口 |----|
26
口口口口 |①---|
口口口口 |----|
口②①口 |②---|
口口口口 |----|
27
口口口口 |①---|
口口口口 |----|
②口口① |②---|
口口口口 |----|
28
口口口口 |①---|
口①①口 |----|
口②②口 |②---|
口口口口 |----|
29
口口口口 |①---|
②口口① |----|
口口口口 |②---|
口口口口 |----|
30
口口口口 |①---|
口口口口 |----|
口②①口 |②---|
口口口口 |----|
31
口①①口 |①---|
口②②口 |--②-|
口口口口 |----|
口③③口 |--③-|
32
口口口口 |----|
口口口口 |----|
口口口口 |----|
口口口口 |----|
33
口口口口 |①---|
口口口① |----|
口口②口 |②---|
口口口口 |----|
34
口口口口 |①---|
口②口口 |----|
口口口口 |②---|
口①口口 |----|
35
口口口口 |①---|
口口口① |----|
口口②口 |②---|
口口口口 |----|
36
口口口口 |①---|
口②口口 |----|
口口口口 |②---|
口①口口 |----|
37
口口口口 |①---|
口③②① |②---|
口口口口 |③---|
口口口口 |----|
38
①②③口 |①---|
口口口口 |②---|
口口口口 |③---|
口口口口 |----|
39
口口口口 |①---|
②口①口 |----|
口口口口 |②---|
口口口口 |----|
40
口口口口 |①---|
口①①口 |②---|
口②②口 |③---|
口③③口 |----|
41
口口口口 |①---|
①口口口 |----|
口②口口 |②---|
口口口口 |----|
42
口口口口 |①---|
口口②口 |----|
口口口口 |②---|
口口①口 |----|
43
口口口口 |①---|
①口口口 |----|
口②口口 |②---|
口口口口 |----|
44
口口口口 |①---|
口口②口 |----|
口口口口 |②---|
口口①口 |----|
45
口口口口 |①---|
口口口口 |②---|
①②③口 |③---|
口口口口 |----|
46
口口口口 |①---|
口③②① |②---|
口口口口 |③---|
口口口口 |----|
47
①②③口 |①---|
口口口口 |②---|
口口口口 |③---|
口口口口 |----|
48
口口口口 |①---|
口①①口 |②---|
口②②口 |③---|
口③③口 |----|
49
口口口口 |①---|
①口口① |----|
口口口口 |----|
口口口口 |----|
50
口口口口 |----|
口口口口 |----|
口口口口 |----|
口口口口 |----|
51
口口口口 |①---|
口口口口 |----|
口②②口 |②---|
口①①口 |----|
52
口②②口 |①---|
口①①口 |----|
口口口口 |②---|
口口口口 |----|
53
①口口② |①---|
口口口口 |----|
口口口口 |②---|
口口口口 |----|
54
口口口口 |①---|
口①②口 |----|
口口口口 |②---|
口口口口 |----|
55
①口口② |①---|
口口口口 |----|
口口口口 |②---|
口口口口 |----|
56
口口口口 |①---|
口①①口 |----|
口口口口 |----|
口口口口 |----|
57
口口口口 |①---|
④③②① |②---|
口口口口 |③---|
口口口口 |④---|
58
①口口口 |①---|
口口口口 |----|
口口口口 |----|
口口口口 |----|
59
口口口口 |①---|
①②③④ |②---|
口口口口 |③---|
口口口口 |④---|
60
口②口① |①---|
口口口口 |----|
口口口口 |②---|
口口口口 |----|
61
②口口① |①---|
口口口口 |----|
口口口口 |②---|
口口口口 |----|
62
口口口口 |①---|
口②①口 |----|
口口口口 |②---|
口口口口 |----|
63
②口口① |①---|
口口口口 |----|
口口口口 |②---|
口口口口 |----|
64
口口口口 |①---|
口①①口 |----|
口口口口 |----|
口口口口 |----|
65
口口口口 |①---|
①②③④ |②---|
口口口口 |③---|
口口口口 |④---|
66
口口口① |①---|
口口口口 |----|
口口口口 |----|
口口口口 |----|
67
口口口口 |①---|
④③②① |②---|
口口口口 |③---|
口口口口 |④---|
68
①口②口 |①---|
口口口口 |----|
口口口口 |②---|
口口口口 |----|
69
口口口口 |①---|
②②①① |----|
口口口口 |②---|
口口口口 |----|
70
口口口口 |①---|
口口口口 |----|
②②①① |②---|
口口口口 |----|
71
口口口口 |①---|
口口口口 |----|
口口口口 |②---|
②②①① |----|
72
口口口口 |①---|
②口口② |----|
③①①③ |②---|
口口口口 |③---|
73
口口口口 |①---|
口口口口 |----|
口口口口 |----|
①口口① |----|
74
口口口口 |----|
口口口口 |①---|
①②③口 |②---|
口口口口 |③---|
75
口口口口 |①---|
②②①① |----|
口口口口 |②---|
口口口口 |----|
76
②口口② |①---|
口口①① |----|
口口口口 |②---|
口口口口 |----|
77
口口口口 |①---|
口①①口 |----|
口口口口 |----|
口口口口 |----|
78
口口口口 |①---|
口口口口 |----|
口口口口 |----|
口①①口 |----|
79
口口口口 |①---|
口①①口 |----|
口①①口 |----|
口口口口 |----|

accuracy: 99.5%
最終更新:2023年10月11日 02:00