アットウィキロゴ
ギラメタスでんぱスターズ
でんぱ組.inc

ADVANCED

Level: 6
BPM: 200
Notes: 424

1
口口口口 |----|
口口口口 |----|
口口口口 |----|
口口口口 |----|
2
口口口口 |----|
口口口口 |----|
口口口口 |----|
口口口口 |----|
3
口口口口 |----|
口口口口 |----|
口口口口 |----|
口口口口 |----|
4
口口口口 |----|
口口口口 |----|
口口口口 |----|
口口口口 |----|
5
口口口口 |①---|
口口口口 |②---|
④④③③ |③---|
②②①① |④---|
6
④④③③ |①---|
②②①① |②---|
口口口口 |③---|
口口口口 |④---|
7
口口口口 |----|
口口口口 |----|
口口口口 |----|
口口口口 |----|
8
①①口口 |①---|
③③口④ |②---|
②②⑤口 |③-④-|
口⑥口口 |⑤-⑥-|
9
口④口① |①---|
口③③口 |②---|
口口口② |③---|
口口口口 |④---|
10
口口④④ |①---|
口口口口 |②---|
口①②③ |③---|
口口口口 |④---|
11
①口口口 |①---|
口③③口 |②---|
②口④口 |③---|
口⑤口口 |④-⑤-|
12
①口①口 |①---|
口③口③ |②---|
口②口② |③---|
④口④口 |④---|
13
①口④口 |①---|
口③③口 |②---|
②口口口 |③---|
口口口口 |④---|
14
④④口口 |①---|
口口口口 |②---|
③②①口 |③---|
口口口口 |④---|
15
口口口① |①---|
口③③口 |②---|
口④口② |③---|
口口⑤口 |④-⑤-|
16
口①口① |①---|
③口③口 |②---|
②口②口 |③---|
口④口④ |④---|
17
③口口口 |①---|
口④口① |②---|
口②⑤口 |③-④-|
口口口口 |⑤---|
18
口口①口 |①---|
②口③③ |②---|
口口口口 |③---|
④④口口 |④---|
19
口③口② |①---|
口口④口 |②---|
①⑤口① |③-④-|
口口⑥口 |⑤-⑥-|
20
口③③口 |①---|
①口口② |②---|
①口口② |③---|
口口口口 |----|
21
口③口④ |①---|
①口⑤口 |②---|
口口②口 |③---|
口口口口 |④-⑤-|
22
口口口口 |①---|
③③口② |②---|
口①口口 |③---|
口口④④ |④---|
23
②口③口 |①---|
口④口口 |②---|
①口⑤① |③-④-|
口⑥口口 |⑤-⑥-|
24
口③③口 |①---|
②口口① |②---|
②口口① |③---|
口口口口 |----|
25
③口口口 |①---|
口④口② |②---|
口口⑤口 |③-④-|
口①①⑥ |⑤-⑥-|
26
口④口口 |①---|
口口②口 |②---|
③口口口 |③---|
口①口口 |④---|
27
口口口③ |①---|
②口④口 |②---|
口⑤口口 |③-④-|
⑥①①口 |⑤-⑥-|
28
口④④口 |①---|
口②口口 |②---|
口口口③ |③---|
口口①口 |④---|
29
口口口③ |①---|
②口④口 |②---|
口⑤口口 |③-④-|
⑥①①口 |⑤-⑥-|
30
口口口④ |①---|
口②口口 |②---|
口口口③ |③---|
口口①口 |④---|
31
口①①口 |①-②-|
④②②④ |--③-|
口口口口 |--④-|
⑤③③⑤ |--⑤-|
32
口口口口 |----|
口口口口 |①---|
①②③口 |②---|
口口口口 |③---|
33
⑤口口① |①-②-|
⑤②口③ |--③-|
口④口口 |④---|
口口口口 |⑤---|
34
口口口② |①---|
口口①③ |②---|
口口①④ |③---|
口口口口 |④---|
35
①口口⑤ |①-②-|
③口②⑤ |--③-|
口口④口 |④---|
口口口口 |⑤---|
36
②口口口 |①---|
③①口口 |②---|
④①口口 |③---|
口口口口 |④---|
37
口口②① |①-②-|
口口④③ |③-④-|
口口口⑤ |⑤---|
口口口口 |----|
38
①②口口 |①-②-|
③④口口 |③-④-|
⑤口口口 |⑤---|
口口口口 |----|
39
①口口口 |①---|
②②口口 |②---|
③③③口 |③---|
④④④④ |④---|
40
口③③③ |①---|
口口②② |②---|
口口口① |③---|
口口口口 |----|
41
①口口⑤ |①-②-|
③口②⑤ |--③-|
口口④口 |④---|
口口口口 |⑤---|
42
②口口口 |①---|
③①口口 |②---|
④①口口 |③---|
口口口口 |④---|
43
⑤口口① |①-②-|
⑤②口③ |--③-|
口④口口 |④---|
口口口口 |⑤---|
44
口口口② |①---|
口口①③ |②---|
口口①④ |③---|
口口口口 |④---|
45
①②口口 |①-②-|
③④口口 |③-④-|
⑤口口口 |⑤---|
口口口口 |----|
46
口口②① |①-②-|
口口④③ |③-④-|
口口口⑤ |⑤---|
口口口口 |----|
47
口口口口 |①-②-|
①②口口 |③-④-|
③④口口 |⑤---|
⑤口口口 |----|
48
口口口口 |①-②-|
口口②① |③-④-|
口口④③ |⑤---|
口⑥口⑤ |⑥---|
49
口口口口 |①---|
①①①① |----|
口②②口 |②---|
口口口口 |----|
50
口①①口 |①---|
口②②口 |----|
口口口口 |②---|
口口口口 |----|
51
④④口口 |①---|
口口③③ |②---|
②②口口 |③---|
口口①① |④---|
52
口口③③ |①---|
②②口口 |②---|
口口①① |③---|
口口口口 |----|
53
①②口口 |①---|
口口口口 |----|
①②口口 |②---|
口口口口 |----|
54
口口①② |①---|
口口口口 |----|
口口①② |②---|
口口口口 |----|
55
口口口口 |①---|
口口口口 |----|
口②口口 |②---|
①口口口 |----|
56
口②①口 |①---|
口①③① |----|
口④①口 |②-③-|
口口⑤口 |④-⑤-|
57
口口③③ |--①-|
①口④④ |②---|
口口②口 |③---|
口口口口 |④---|
58
口口②口 |①---|
口③口口 |----|
口口④口 |②-③-|
口⑤①① |④-⑤-|
59
③③口口 |--①-|
④④口① |②---|
口②口口 |③---|
口口口口 |④---|
60
口③③口 |①---|
口口口口 |②---|
口口口口 |③---|
①①②② |----|
61
口口②① |①---|
口口口口 |----|
口口②① |②---|
口口口口 |----|
62
②①口口 |①---|
口口口口 |----|
②①口口 |②---|
口口口口 |----|
63
口口口口 |①---|
口口口口 |----|
口口②口 |②---|
口口口① |----|
64
口①②口 |①---|
①③①口 |----|
口①④口 |②-③-|
口⑤口口 |④-⑤-|
65
③③口口 |--①-|
④④口① |②---|
口②口口 |③---|
口口口口 |④---|
66
口②口口 |①---|
口口③口 |----|
口④口口 |②-③-|
①①⑤口 |④-⑤-|
67
口口③③ |--①-|
①口④④ |②---|
口口②口 |③---|
口口口口 |④---|
68
口③③口 |①---|
口口口口 |②---|
口口口口 |③---|
②②①① |----|
69
口口口⑤ |--①-|
口口口口 |②-③-|
④③②① |④---|
口口⑥口 |⑤-⑥-|
70
⑤口口口 |--①-|
①②③④ |②-③-|
口口口口 |④---|
口⑥口口 |⑤-⑥-|
71
口⑥⑥口 |--①-|
口口口⑤ |②-③-|
④③②① |④---|
口口口口 |⑤-⑥-|
72
口口口口 |----|
口③②口 |①---|
③①①② |②---|
口口口口 |③---|
73
①口口① |①---|
口口口口 |----|
口口口口 |----|
口口口口 |----|
74
口口口口 |----|
口③③口 |①---|
口②②口 |②---|
口①①口 |③---|
75
②口口① |--①-|
④口口③ |②-③-|
⑥口口⑤ |④-⑤-|
口口口⑦ |⑥-⑦-|
76
口①②口 |--①-|
口③④口 |②-③-|
口⑤⑥口 |④-⑤-|
口⑦口口 |⑥-⑦-|
77
口口口口 |①---|
①口口① |----|
口口口口 |----|
口口口口 |----|
78
口口口口 |①---|
口口口口 |----|
口口口口 |----|
①①①① |----|
79
口口口口 |①---|
口①①口 |----|
口①①口 |----|
口口口口 |----|

accuracy: 99.5%
最終更新:2023年10月11日 02:01