アットウィキロゴ
ギラメタスでんぱスターズ
でんぱ組.inc

EXTREME

Level: 8
BPM: 200
Notes: 644

1
口口口口 |----|
口口口口 |----|
口口口口 |----|
口口口口 |----|
2
口口口口 |----|
口口口口 |----|
口口口口 |----|
口口口口 |----|
3
口口口口 |----|
口口口口 |----|
口口口口 |----|
口口口口 |----|
4
口口口口 |----|
口口口口 |----|
口口口口 |----|
口口口口 |----|
5
④③②① |①---|
口口口② |②---|
口口口③ |③---|
口口口④ |④---|
6
口口④口 |①---|
①④④④ |②---|
②口④口 |③---|
③②①口 |④---|
7
口口口口 |----|
口口口口 |----|
口口口口 |----|
口口口口 |----|
8
口⑥⑤④ |①---|
③①口① |②---|
③⑥⑤④ |③-④-|
口②口② |⑤-⑥-|
9
⑤口口⑤ |①-②-|
口③口① |③-④-|
⑥口⑦口 |⑤---|
④口②口 |⑥-⑦-|
10
口①⑥口 |①-②-|
口⑥②⑤ |③-④-|
口③口⑤ |⑤---|
口口④口 |⑥---|
11
⑤口口⑤ |①-②-|
①口③口 |③-④-|
口⑦口⑥ |⑤---|
口②口④ |⑥-⑦-|
12
③①①③ |①---|
口④口口 |②---|
①口③口 |③---|
④口②② |④---|
13
⑤口口⑤ |①-②-|
①口③口 |③-④-|
口⑦口⑥ |⑤---|
口②口④ |⑥-⑦-|
14
口⑥①口 |①-②-|
⑤②⑥口 |③-④-|
⑤口③口 |⑤---|
口④口口 |⑥---|
15
⑤口口⑤ |①-②-|
口③口① |③-④-|
⑥口⑦口 |⑤---|
④口②口 |⑥-⑦-|
16
③①①③ |①---|
口口④口 |②---|
口③口① |③---|
②②口④ |④---|
17
口①口口 |①-②-|
②口⑦口 |③-④-|
③口口⑥ |⑤-⑥-|
口④⑤口 |⑦---|
18
①口⑤⑤ |①-②-|
口②口口 |③-④-|
③口口口 |⑤---|
口④⑥⑥ |⑥---|
19
①①口口 |①-②-|
口④口② |③-④-|
⑤口③⑧ |⑤-⑥-|
口⑥⑦口 |⑦-⑧-|
20
①口③② |①---|
①③口② |②---|
口口③口 |③---|
口③口口 |----|
21
口①口口 |①-②-|
②口⑧⑦ |③-④-|
③口口⑥ |⑤-⑥-|
口④⑤口 |⑦-⑧-|
22
①口⑤⑤ |①-②-|
口②口口 |③-④-|
③口口口 |⑤---|
口④⑥⑥ |⑥---|
23
①①口口 |①-②-|
口④口② |③-④-|
⑤口③⑧ |⑤-⑥-|
口⑥⑦口 |⑦-⑧-|
24
口①②口 |①---|
①③③② |②---|
⑦⑧口口 |③-④⑤|
④⑤⑥口 |⑥-⑦⑧|
25
②④口③ |①-②-|
②口⑤③ |③---|
口口①⑥ |④-⑤-|
口口⑦口 |⑥-⑦-|
26
口口口口 |①-②-|
③①口口 |③-④-|
⑤⑥⑦⑧ |⑤-⑥-|
②④口口 |⑦-⑧-|
27
①口②① |①-②-|
口③⑧口 |③-④-|
④口口⑦ |⑤-⑥-|
口⑤⑥口 |⑦-⑧-|
28
①③④② |①---|
③③口④ |②---|
③①②口 |③---|
口口口口 |④---|
29
口⑦口⑤ |①-②③|
⑧口⑥口 |④---|
口④③② |⑤-⑥-|
①口口① |⑦-⑧-|
30
①口口口 |①-②-|
口②⑦口 |③-④-|
③⑧口⑥ |⑤-⑥-|
口④⑤口 |⑦-⑧-|
31
②④④① |①-②-|
②⑥⑥① |--③-|
⑤口口⑤ |--④-|
③③③③ |⑤-⑥-|
32
口②口① |----|
③口口口 |①---|
口④①口 |②-③-|
口口⑤口 |④-⑤-|
33
⑤⑤①口 |①-②-|
口口③① |--③-|
②口口③ |④---|
④⑤口口 |⑤---|
34
口口①① |①---|
口③④⑤ |②-③-|
②口⑥口 |④-⑤-|
口⑦①口 |⑥-⑦-|
35
口①⑤⑤ |①-②-|
①③口口 |--③-|
③口口② |④---|
口口⑤④ |⑤---|
36
①①口口 |①---|
⑤④③口 |②-③-|
口⑥口② |④-⑤-|
口①⑦口 |⑥-⑦-|
37
口④①① |①-②-|
口④口③ |③-④-|
口口口③
②②口口

口口口⑥
口口口口
⑤口⑤口 |⑤---|
口口口口 |--⑥-|
38
②⑤口口 |①-②-|
②口④④ |③-④-|
口⑤口口 |⑤---|
③③①① |----|
39
⑦⑧⑥⑤ |①-②-|
口⑦⑤口 |③-④-|
③④②① |⑤-⑥-|
口③①口 |⑦-⑧-|
40
口口口③ |①---|
②口③① |②---|
口口口口 |③---|
①③③② |----|
41
⑤⑤①口 |①-②-|
口口③① |--③-|
②口口③ |④---|
④⑤口口 |⑤---|
42
口口①① |①---|
口③④⑤ |②-③-|
②口⑥口 |④-⑤-|
口⑦①口 |⑥-⑦-|
43
口①⑤⑤ |①-②-|
①③口口 |--③-|
③口口② |④---|
口口⑤④ |⑤---|
44
①①口口 |①---|
⑤④③口 |②-③-|
口⑥口② |④-⑤-|
口①⑦口 |⑥-⑦-|
45
口④①① |①-②-|
口④口③ |③-④-|
口口口③
②②口口

口口口⑥
口口口口
⑤口⑤口 |⑤---|
口口口口 |--⑥-|
46
②⑤口口 |①-②-|
②口④④ |③-④-|
口⑤口⑥ |⑤---|
③③①① |--⑥-|
47
⑤口⑤③ |①-②-|
②②口③ |③-④-|
口④⑥口 |⑤---|
口④①① |--⑥-|
48
口⑤⑤口 |①-②-|
①口③③ |③-④-|
①⑥⑥② |⑤---|
④④口② |⑥---|
49
①口④① |①---|
②口口④ |--②-|
①口口① |③---|
口③口口 |④---|
50
⑤口口⑤ |①-②-|
口①③口 |--③-|
口口口口 |④---|
口口②④ |⑤---|
51
⑦⑧⑦口 |①-②-|
⑤⑥⑤口 |③-④-|
③④③口 |⑤-⑥-|
①②①口 |⑦-⑧-|
52
口口口口 |①-②-|
⑤⑤⑤⑤ |③-④-|
口③④③ |⑤---|
口①②① |----|
53
①③口口 |①---|
口口口口 |②---|
①③④② |③---|
口口②④ |④---|
54
口口④② |①---|
①③②④ |②---|
口口口口 |③---|
①③口口 |④---|
55
③③口④ |①---|
③口口口 |②---|
口口口① |③---|
②口①① |④---|
56
口口口口 |①---|
口口①口 |----|
口①①①
口口①口

口⑤②口
口③⑤口
④口口口 |②-③-|
口口口口 |④-⑤-|
57
④口⑥⑤ |--①-|
口④口口 |②-③-|
口口②⑥ |④-⑤-|
口③口① |⑥---|
58
口③⑥口 |①---|
①⑥④① |②---|
口口口⑤ |③-④-|
②口口② |⑤-⑥-|
59
⑦⑥口口 |--①-|
口口⑤④ |②-③-|
口②口口 |④-⑤-|
①口③口 |⑥-⑦-|
60
口口口① |①---|
口②④口 |②---|
口③③① |③---|
口②④口 |④---|
61
口口②④ |①---|
①③④② |②---|
口口口口 |③---|
①③口口 |④---|
62
①③口口 |①---|
口口口口 |②---|
①③②④ |③---|
口口④② |④---|
63
②口①① |①---|
口口口① |②---|
③口口口 |③---|
③③口④ |④---|
64
口口①口 |①---|
口①①① |----|
口口①口
口口口口

口口口口
④口口口
口③⑤口 |②-③-|
口⑤②口 |④-⑤-|
65
口③口① |--①-|
口口②⑥ |②-③-|
口④口口 |④-⑤-|
④口⑥⑤ |⑥---|
66
②口口② |①---|
口口口⑤ |②---|
①⑥④① |③-④-|
口③⑥口 |⑤-⑥-|
67
①口③口 |--①-|
口②口口 |②-③-|
口口⑤④ |④-⑤-|
⑦⑥口口 |⑥-⑦-|
68
口②④口 |①---|
口③③① |②---|
口②④口 |③---|
口口口① |④---|
69
口②口⑥ |①-②-|
③⑦⑤口 |③-④-|
口④口⑧ |⑤-⑥-|
①口口① |⑦-⑧-|
70
①②③口 |--①②|
口⑧⑧⑤ |③-④-|
④口⑥口 |⑤-⑥-|
口⑦口口 |⑦-⑧-|
71
口③②① |--①②|
⑤⑧⑧口 |③-④-|
口⑥口④ |⑤-⑥-|
口口⑦口 |⑦-⑧-|
72
②口口② |----|
③口口③ |①---|
④口口④ |②-③-|
①口口① |④---|
73
口③①口 |①---|
口口口口 |②---|
口②④口 |③---|
②④②④ |④---|
74
口口口① |①---|
④④④口 |②---|
③③口口 |③---|
②口口口 |④---|
75
⑦⑤③① |--①-|
口口口⑦ |②-③-|
口⑥④② |④-⑤-|
口口口口 |⑥-⑦-|
76
口口口口 |--①-|
①③⑤⑦ |②-③-|
⑦口口口 |④-⑤-|
②④⑥口 |⑥-⑦-|
77
①①①① |①---|
口口口口 |----|
口口口口 |----|
口口口口 |----|
78
②口口② |①---|
口口口口 |----|
口口口口 |②---|
①①①① |----|
79
口口口口 |①---|
口口①口 |----|
口①①口 |----|
口①口口 |----|

accuracy: 99.5%
最終更新:2023年10月11日 02:02