アットウィキロゴ
ケムマキunderground
t+pazolite feat. リズナ

EXTREME

Level: 9.5
BPM : 200
Notes(hold): 862(39)

1
口口口口 |----|
口口口口 |----|
口口口口 |----|
口口口口 |----|
2
口口④口 |①---|
口③⑦口 |--②③|
口⑥②口 |④-⑤-|
①⑤口① |⑥-⑦-|
3
口①④⑥ |①-②-|
②口口③ |③-④-|
口口口口 |⑤---|
⑤口口口 |--⑥-|
4
口⑧⑥口 |①-②-|
②⑦⑤③ |③-④-|
①口口④ |⑤-⑥-|
口口口口 |⑦-⑧-|
5
口④③口 |①---|
口口④口 |②---|
口④②口 |③---|
口①口① |④---|
6
∨口口∨ |①---|
|口口| |②-③④|
|口口| |⑤-⑥-|
①口口① |⑦-⑧-|

口口⑤口
口④⑧口
口⑦③口
②⑥口②
7
口①④口 |①-②-|
②口口③ |③-④-|
口口口口 |⑤---|
⑤――< |⑥-⑦-|

口口口⑦
口口口口
口口口口
⑥口口口
8
口⑧⑥口 |①-②-|
②⑦⑤③ |③-④-|
①口口④ |⑤-⑥-|
口口口口 |⑦-⑧-|
9
④口⑥口 |①-②③|
口⑦口③ |④-⑤-|
②⑤⑦口 |⑥---|
口①①口 |⑦---|
10
∨口口∨ |①---|
|口口| |②-③④|
|口口| |⑤-⑥-|
①口口① |⑦-⑧-|

口⑤口口
口⑧④口
口③⑦口
②口⑥②
11
口④②口 |①-②-|
③口口① |③-④-|
口口口口 |⑤---|
――⑤ |⑥-⑦-|

⑦口口口
口口口口
口口口口
口口口⑥
12
口⑧⑥口 |①-②-|
③⑦⑤② |③-④-|
④口口① |⑤-⑥-|
口口口口 |⑦-⑧-|
13
②口口① |①---|
口口口口 |②---|
③①②③ |③---|
①③③② |----|
14
⑤口①⑤ |①---|
③②口口 |②-③-|
⑤口口⑤ |--④-|
口④④④ |--⑤-|
15
口口口口 |----|
口口①口 |①---|
口②口口 |②---|
③口口口 |③---|
16
口①口口 |①---|
口口②③ |②-③-|
⑤――< |--④-|
④④④口 |--⑤-|
17
口口口口 |----|
口口口口 |----|
①口口① |①---|
口口口口 |----|
18
⑤口①⑤ |①---|
③②口口 |②-③-|
⑤口口⑤ |--④-|
口④④④ |--⑤-|
19
口口口口 |----|
――④ |①-②-|
口①②口 |--③-|
③口口口 |--④-|
20
口口口口 |①---|
口口口④ |②---|
①②③⑤ |③-④-|
口口口口 |⑤---|
21
③①③① |①-②-|
口口口口 |③-④-|
口口口口 |----|
②④②④ |----|
22
③口口① |①---|
②口口⑤ |②-③-|
口⑤①口 |④-⑤-|
①②④⑥ |⑥-⑦-|

口⑦口口
口口口口
口口⑦口
口口口口
23
口口②② |①---|
③③口口 |②---|
口口④④ |③---|
①②③④ |④---|
24
口③②⑤ |①---|
口口口① |②-③-|
口①口口 |④-⑤-|
①②④⑥ |⑥-⑦-|

口口口口
口⑦口⑦
⑦口⑦口
口口口口
25
④口口口 |①---|
口口口口 |②---|
口④口口 |③---|
①②③④ |④---|
26
⑤⑦口① |①---|
⑤①③② |②-③-|
口⑦⑦① |④-⑤-|
①②④⑥ |⑥-⑦-|
27
④口口口 |①---|
④口②③ |②-③-|
口口口口 |----|
①②口口 |④---|
28
口口⑤⑤ |①---|
口口②③ |②-③-|
口口口口 |--④-|
口口④① |--⑤-|
29
④口口口 |--①-|
口口②口 |--②-|
口口③① |③---|
口口口① |④---|
30
⑤⑤口口 |①---|
③②口口 |②-③-|
口口口口 |--④-|
①④口口 |--⑤-|
31
口口口④ |--①-|
口②口口 |--②-|
①③口口 |③---|
①口口口 |④---|
32
⑤⑤⑤⑤ |①---|
③②②③ |②-③-|
口口口口 |--④-|
①④④① |--⑤-|
33
④口口④ |--①-|
口②②口 |--②-|
①③③① |③---|
①口口① |④---|
34
口②④口 |①---|
口②④口 |②-③-|
③口口① |--④-|
③⑤⑤① |--⑤-|
35
⑨⑧口口 |----|
⑦⑥⑤口 |①-②③|
④口③② |④-⑤⑥|
①口口口 |⑦-⑧⑨|
36
口口>① |①---|
口口口口 |--②-|
口口口口 |--③-|
口口口口 |--④-|

口口口②
④<口口
口口口③
口②口口
37
口口口口 |----|
①口口口 |--①-|
口口③口 |----|
口口②口 |②-③-|
38
③②口④ |①---|
口口①口 |②-③-|
口⑤<口 |--④-|
口口口口 |--⑤-|
39
口口口口 |----|
口口口口 |--①-|
口①口口 |----|
口③②口 |②-③-|
40
⑤口口口 |①-②-|
④口口口 |--③-|
③口口口 |--④-|
②口口① |--⑤-|
41
⑥口口口 |①-②-|
⑤口口④ |--③-|
③口口口 |④-⑤-|
②口口① |--⑥-|
42
⑧口口⑦ |①-②-|
⑥口口⑤ |③-④-|
④口口③ |⑤-⑥-|
②口口① |⑦-⑧-|
43
口②①口 |①②③④|
口④③口 |⑤-⑥-|
口口⑤口 |----|
口⑥⑥口 |----|
44
④①口① |①---|
④口口口 |②-③-|
②③②③ |--④-|
③②③② |--⑤-|

口口口⑤
口口口口
口口口口
口口口口
45
口口⑤口 |--①-|
口③口① |②-③-|
④口②口 |④---|
口③口① |--⑤-|
46
口口⑤① |①---|
③②口⑤ |②-③-|
口口口口 |--④-|
④口口④ |--⑤-|
47
口口口口 |--①-|
②口口口 |--②-|
③口②① |③---|
口①③口 |----|
48
⑤②口④ |①---|
⑤口口② |②-③-|
④口口⑤ |--④-|
口①③⑤ |--⑤-|
45
④⑤②③ |--①-|
口①①口 |--②-|
口①①口 |③---|
②③口口 |--④⑤|
50
口⑤③⑤ |①---|
口①口③ |②-③-|
⑤口⑤② |--④-|
口④②④ |--⑤-|
51
口口口口 |----|
②④口③ |----|
口口口① |①-②-|
口口口口 |③-④-|
52
④①口① |①---|
④口口口 |②-③-|
②③②③ |--④-|
③②③② |--⑤-|

口口口⑤
口口口口
口口口口
口口口口
53
口口⑤口 |--①-|
口③口① |②-③-|
④口②口 |④---|
口③口① |--⑤-|
54
口口⑤① |①---|
③②口⑤ |②-③-|
口口口口 |--④-|
④口口④ |--⑤-|
55
④口口口 |--①-|
口④口口 |②-③-|
①②③口 |④---|
口口口口 |----|
56
口口口① |①---|
②口口③ |②-③-|
口口口② |--④-|
④①口④ |--⑤-|

⑤口⑤口
口⑤口口
⑤口⑤口
口⑤口口
57
口①口① |--①-|
②口①② |--②-|
口①口① |③---|
③⑤①③ |--⑤-|
58
④口口③ |①---|
口④②口 |②-③-|
①口④口 |--④-|
口口口④ |--⑤-|

口口⑤口
口口口⑤
⑤口口口
口⑤口口
59
口①口② |--①-|
①口③口 |----|
口④口① |②-③-|
⑤口①口 |④-⑤-|
60
①③②口 |①---|
①口③② |--②-|
②③口① |----|
口②③① |③---|
61
③口③① |--①-|
口①口口 |----|
口口①口 |②---|
①②口② |③---|
62
口口口③ |①---|
③①②① |--②-|
②②③② |----|
①③①口 |③---|
63
①①口口 |--①-|
口口口③ |----|
②口口③ |②---|
②口①① |③---|
64
⑧⑥④② |①-②-|
①口⑦口 |③-④-|
口④口口 |⑤-⑥-|
⑦⑤③① |⑦-⑧-|
65
⑧⑥④② |①-②-|
口⑦口② |③-④-|
口口⑤口 |⑤-⑥-|
⑦⑤③① |⑦-⑧-|
66
⑦⑧口⑦ |①-②-|
⑥口④① |③-④-|
⑤①口② |⑤-⑥-|
口口④③ |⑦-⑧-|
67
③口④口 |--①-|
③④③④ |--②-|
②①①② |--③-|
①②②① |--④-|
68
④①口① |①---|
④口口口 |②-③-|
②③②③ |--④-|
③②③② |--⑤-|

口口口⑤
口口口口
口口口口
口口口口
69
口口口口 |--①-|
口③⑥① |②-③-|
④⑤②⑤ |④---|
④③②① |⑤-⑥-|
70
③②口① |①---|
③口口① |②-③-|
口口口口 |--④-|
④口口④ |--⑤-|

口口⑤⑤
口口口⑤
口口口口
口口口口
71
口口口口 |--①-|
②口口④ |--②-|
③④②① |③---|
口①③④ |④---|
72
③口口② |①---|
口②口口 |②-③-|
口口口口 |--④-|
④①口④ |--⑤-|

口口⑤口
口口⑤⑤
⑤口口口
口⑤口口
73
③①口③ |--①-|
①①口⑤ |--②-|
口②②① |③---|
口口①④ |--④⑤|
74
口③④口 |①---|
①④③口 |②-③-|
③口②④ |--④-|
口③④口 |--⑤-|

口口口⑤
⑤口口口
口⑤口口
口口口口
75
③口④口 |----|
③②④② |----|
口口口口 |①-②-|
①口①口 |③-④-|
76
④①口① |①---|
④口口口 |②-③-|
②③②③ |--④-|
③②③② |--⑤-|

口口口⑤
口口口口
口口口口
口口口口
77
口口⑥口 |--①-|
口③口① |②-③-|
④⑤②⑤ |④---|
④③②① |⑤-⑥-|
78
③②口① |①---|
③口口① |②-③-|
口口④口 |④-⑤-|
⑤口口⑤ |⑥-⑦-|

口口⑦⑦
口口口⑦
口⑥口口
口口口口
79
口口口口 |--①-|
③口②⑤ |②-③-|
④⑤③① |④---|
口①④⑤ |⑤---|
80
①②②口 |①---|
口口口口 |②-③-|
口口口① |--④-|
③④③④ |--⑤-|

⑤口口口
口⑤口⑤
⑤口⑤口
口口口口
81
口②②① |--①-|
①⑤①口 |--②-|
口①口① |③---|
④③③④ |④-⑤-|
82
①④⑤① |①---|
④口②⑤ |②-③-|
③口④③ |--④-|
口⑤口口 |--⑤-|
83
①口口口 |--①-|
口①口口 |----|
口③②口 |--②-|
口口①① |③---|
84
口口口① |①---|
口口口| |②---|
口口口| |③---|
口口口∧ |④---|

②―<②
口口口口
口口口口
口口口口

③口口口
∨口口口
|口口口
③口口口

口口口口
口口口口
口口口口
④>―④
85
口口口口 |①---|
口口口① |②---|
口口口∧ |③---|
口口口① |④---|

口口口口
口②<②
口口口口
口口口口

口口口口
口③口口
口∨口口
口③口口

口口口口
口口口口
口口口口
口④④口
86
①口口口 |①---|
|口口口 |②---|
|口口口 |③---|
∧口口口 |④---|

②>―②
口口口口
口口口口
口口口口

口口口③
口口口∨
口口口|
口口口③

口口口口
口口口口
口口口口
④―<④
87
口口口口 |①---|
①口口口 |②---|
∧口口口 |③---|
①口口口 |----|

口口口口
②>②口
口口口口
口口口口

口口口口
口口③口
口③③口
口口口口
88
――① |①---|
口口口口 |②---|
口口口口 |③---|
口口口口 |④---|

口口口②
――②
口口口口
口口口口

口口口口
口口口③
――③
口口口口

口口口口
口口口口
口口口④
――④
89
①――< |①---|
口口口口 |②---|
口口口口 |③---|
口口口① |④---|

②口口口
②――<
口口口口
口口口口

口口口口
③口口口
③――<
口口口口

口口口口
口口口口
④口口口
④――<
90
口口①① |①---|
③③②② |②---|
④④口口 |③---|
①口口口 |④---|
91
③口⑤口 |①-②-|
④口⑥口 |③-④-|
口⑧口② |⑤-⑥-|
口⑦口① |⑦-⑧-|
92
∨口口∨ |①---|
|口口| |②-③④|
|口口| |⑤-⑥-|
①口口① |⑦-⑧-|

口口⑤口
口④⑧口
口⑦③口
②⑥口②
93
口①④口 |①-②-|
②口口③ |③-④-|
口口口口 |⑤---|
⑤――< |⑥-⑦-|

口口口⑦
口口口口
口口口口
⑥口口口
94
③⑧⑥口 |①-②-|
②⑦⑤③ |③-④-|
①口口④ |⑤-⑥-|
口⑤⑦① |⑦-⑧-|
95
口口口口 |①---|
口口口口 |----|
口>①口 |----|
口口口口 |②---|

口口口口
口口口口
口口②口
口②②口
96
∨口口∨ |①---|
|口口| |②-③④|
|口口| |⑤-⑥-|
①口口① |⑦-⑧-|

口⑤口口
口⑧④口
口③⑦口
②口⑥②
97
口④②口 |①-②-|
③口口① |③-④-|
口口口口 |⑤---|
――⑤ |⑥-⑦-|

⑦口口口
口口口口
口口口口
口口口⑥
98
口⑧⑥① |①-②-|
③⑦⑤② |③-④-|
④口口① |⑤-⑥-|
③⑦⑤口 |⑦-⑧-|
99
②口口③ |①---|
②口③① |②---|
②③口① |③---|
③口口① |----|
100
③①①口 |①---|
②③口① |②---|
②口③① |③---|
口②②③ |----|
最終更新:2020年03月20日 17:46