アットウィキロゴ
雑草
HIKAKIN & SEIKIN

BASIC

Level: 3
BPM: 128
Notes: 254

1
口口口口 |----|
口口口口 |----|
口口口口 |----|
口口口口 |----|
2
口口口口 |----|
口口口口 |----|
口①①口 |①---|
口口口口 |----|
3
①①①① |①---|
②②②② |----|
口口口口 |②---|
口口口口 |----|
4
口口口口 |①---|
口口口口 |----|
①①①① |----|
口②口口 |②---|
5
口口口口 |①---|
口口口口 |----|
口口②口 |②---|
口口①口 |----|
6
口口口口 |①---|
口口①口 |----|
口②②口 |②---|
口口口口 |----|
7
①①①① |①---|
②②②② |----|
口口口口 |②---|
口口口口 |----|
8
口口口口 |①---|
口口口口 |----|
①①①① |----|
口口②口 |②---|
9
口口口口 |①---|
口口口口 |----|
口②口口 |②---|
口①口口 |----|
10
口口口口 |①---|
口①口③ |----|
口口②口 |②---|
口口口口 |③---|
11
④③②① |①---|
口口口口 |②---|
口口口口 |③---|
口口口口 |④---|
12
口口口口 |①---|
①口口口 |----|
口②口口 |----|
口口口口 |②---|
13
口口口口 |①---|
①②③④ |②---|
口口口口 |③---|
口口口口 |④---|
14
口口口口 |①---|
口口口口 |----|
口口①口 |----|
口口口口 |----|
15
①口口口 |①---|
口②口口 |②---|
口口③口 |③---|
口口口④ |④---|
16
口口口④ |①---|
口口③口 |②---|
口口口② |③---|
口口①口 |④---|
17
口口①口 |①---|
口②口口 |②---|
口口③口 |③---|
口④口口 |④---|
18
口④口口 |①---|
口口③口 |②---|
口②口口 |③---|
口口①口 |④---|
19
①口口口 |①---|
口②口口 |②---|
口口③口 |③---|
口口口④ |④---|
20
口口口④ |①---|
口口③口 |②---|
口口口② |③---|
口口①口 |④---|
21
口口①口 |①---|
口②口口 |②---|
口口③口 |③---|
口④口口 |④---|
22
口④口口 |①---|
口口③口 |②---|
口②口口 |③---|
口口①口 |④---|
23
口口口① |①---|
口口②口 |②---|
口③口口 |③---|
④口口口 |④---|
24
④口口口 |①---|
口③口口 |②---|
②口口口 |③---|
口①口口 |④---|
25
口①口口 |①---|
口口②口 |②---|
口③口口 |③---|
口口④口 |④---|
26
口口④口 |①---|
口③口口 |②---|
口口②口 |③---|
口①口口 |④---|
27
口口口① |①---|
口口②口 |②---|
口③口口 |③---|
④口口口 |④---|
28
④口口口 |①---|
口③口口 |②---|
②口口口 |③---|
口①口口 |④---|
29
口①口口 |①---|
口口②口 |②---|
口③口口 |③---|
口口④口 |④---|
30
口口口口 |①---|
口口口口 |----|
口口口口 |----|
口①口口 |----|
31
②口口② |①---|
口口口口 |----|
口①①口 |②---|
口口口口 |----|
32
口口口口 |①---|
口①①口 |②---|
口②②口 |③---|
口③③口 |----|
33
口口口口 |①---|
口口口口 |②---|
口④③口 |③---|
②口口① |④---|
34
②口口口 |①---|
口口①口 |----|
口口口口 |②---|
口口口口 |----|
35
②口口② |①---|
口口口口 |----|
口①①口 |②---|
口口口口 |----|
36
口口口口 |①---|
口①①口 |②---|
口②②口 |③---|
口③③口 |----|
37
口口口口 |①---|
口④④口 |②---|
口③③口 |③---|
①②②① |④---|
38
①①①① |①---|
口③③口 |----|
口②②口 |②---|
口口口口 |③---|
39
②①①② |①---|
③口口③ |②---|
④口口④ |③---|
口口口口 |④---|
40
口口口口 |①---|
口口②口 |----|
口口口口 |----|
①口口① |②---|
41
口口口口 |①---|
口口口④ |②---|
③①口口 |③---|
口口口② |④---|
42
①口口口 |①---|
口③③口 |----|
口②②口 |②---|
口口口口 |③---|
43
②①①② |①---|
③口口③ |②---|
④口口④ |③---|
口口口口 |④---|
44
口口口口 |①---|
口口②口 |----|
口口口口 |----|
①口口① |②---|
45
口口口口 |①---|
口口口④ |②---|
③①口口 |③---|
口口口② |④---|
46
①口口口 |①---|
口③③口 |----|
口②②口 |②---|
口口口口 |③---|
47
②①①② |①---|
③口口③ |②---|
④口口④ |③---|
口口口口 |④---|
48
口口口口 |①---|
口口②口 |----|
口口口口 |----|
①口口① |②---|
49
口口口口 |①---|
口口口④ |②---|
③①口口 |③---|
口口口② |④---|
50
①口口口 |①---|
口③③口 |----|
口②②口 |②---|
口口口口 |③---|
51
②①①② |①---|
③口口③ |②---|
④口口④ |③---|
口口口口 |④---|
52
口口口口 |①---|
口口②口 |----|
口口口口 |----|
①口口① |②---|
53
口口口口 |①---|
口口口④ |②---|
③①口口 |③---|
口口口② |④---|
54
①口口口 |①---|
口口口③ |----|
口口②口 |②---|
口口口口 |③---|
55
④③②① |①---|
口口口口 |②---|
口口口口 |③---|
口口口口 |④---|
56
口口口口 |①---|
①口口口 |----|
口②口口 |----|
口口口口 |②---|
57
口口口口 |①---|
①②③④ |②---|
口口口口 |③---|
口口口口 |④---|
58
口口口口 |①---|
口②口③ |----|
口口①口 |②---|
口口口口 |③---|
59
④③②① |①---|
口口口口 |②---|
口口口口 |③---|
口口口口 |④---|
60
口口口口 |①---|
①口口口 |----|
口②口口 |----|
口口口口 |②---|
61
口口口口 |①---|
①②③④ |②---|
口口口口 |③---|
口口口口 |④---|
62
口口口口 |①---|
口口口口 |----|
口口①口 |----|
口口口口 |----|

accuracy: 99.5%
最終更新:2023年01月17日 11:40