アットウィキロゴ
雑草
HIKAKIN & SEIKIN

ADVANCED

Level: 6
BPM: 128
Notes: 465

1
口口口口 |----|
口口口口 |----|
口口口口 |----|
口口口口 |----|
2
②口口① |①---|
口④③口 |②---|
口⑤⑤口 |③--④|
口③④口 |--⑤-|
3
①口口① |①---|
②④④② |②---|
③口口③ |③--④|
口⑤⑤口 |--⑤-|
4
口口口口 |----|
口③口口 |----|
口口②口 |--①-|
口①口口 |②-③-|
5
②②①口 |①---|
口口口口 |②---|
口口口口
口口口口

口⑤口口
口口③③
口口口口 |③--④|
口④④口 |--⑤-|
6
口口①口 |①---|
口③②口 |----|
口④④口 |②--③|
口②③口 |--④-|
7
①口口① |①---|
②④④② |②---|
③口口③ |③--④|
口⑤⑤口 |--⑤-|
8
口口口口 |----|
③口口口 |----|
口口口② |--①-|
①口口口 |②-③-|
9
口口①① |①---|
④②②④ |②---|
口③③口 |③--④|
口⑤⑤口 |--⑤-|
10
口①①口 |①---|
口口口口 |----|
②③④口 |②--③|
②③④口 |--④-|
11
①口①口 |①---|
口②口② |②---|
③⑤③④ |③--④|
口⑤口④ |--⑤-|
12
口③②① |①---|
口口口口 |②---|
口⑥④口 |③-④-|
⑤口口口 |⑤-⑥-|
13
口口①① |①---|
④口②② |②---|
④口③③ |③--④|
口⑤⑤口 |--⑤-|
14
②口口② |①---|
口①①口 |②---|
口口口口
口口口口

口③③口
口⑤⑤口
口口口口 |③--④|
④口口④ |--⑤-|
15
②口口口 |①--②|
口⑤④口 |--③-|
口⑦⑥口 |④-⑤-|
口③①口 |⑥-⑦-|
16
⑦口⑥② |①--②|
⑤口口口 |--③-|
口口④口 |④-⑤-|
③口口① |⑥-⑦-|
17
⑦口口口 |①--②|
口口②⑥ |--③-|
⑤③口口 |④-⑤-|
口口①④ |⑥-⑦-|
18
⑦口②口 |①--②|
口口口⑥ |--③-|
⑤口①口 |④-⑤-|
③口口④ |⑥-⑦-|
19
口口④⑤ |①--②|
口①⑥⑦ |--③-|
口口口③ |④-⑤-|
口②口口 |⑥-⑦-|
20
口口⑤④ |①--②|
口①⑦⑥ |--③-|
口口口口 |④-⑤-|
口②口③ |⑥-⑦-|
21
口口口口 |①--②|
口①⑤④ |--③-|
口口⑦⑥ |④-⑤-|
口②③口 |⑥-⑦-|
22
口口④④ |①--②|
口⑤口② |--③-|
口口⑥口 |④-⑤-|
③⑦口① |⑥-⑦-|
23
口④口口 |①--②|
①口⑤口 |--③-|
口⑥口口 |④-⑤-|
②口⑦③ |⑥-⑦-|
24
④口口口 |①--②|
口②⑤口 |--③-|
口⑥口口 |④-⑤-|
口①⑦③ |⑥-⑦-|
25
口④口口 |①--②|
①口⑤口 |--③-|
口⑥口口 |④-⑤-|
②口⑦③ |⑥-⑦-|
26
⑦⑥⑤④ |①--②|
口②口口 |--③-|
口口口口 |④-⑤-|
③①口口 |⑥-⑦-|
27
口口口口 |①--②|
⑦口②口 |--③-|
⑤⑥口口 |④-⑤-|
③④①口 |⑥-⑦-|
28
③口口口 |①--②|
口口口② |--③-|
⑤④口口 |④-⑤-|
⑦⑥口① |⑥-⑦-|
29
④口口口 |①--②|
口口②⑤ |--③-|
⑥口口口 |④-⑤-|
口③①⑦ |⑥-⑦-|
30
口④③② |①---|
口口口口 |②---|
口口口口 |③---|
①口口口 |④---|
31
口口口口 |①---|
口口口口 |----|
②②②口 |②---|
口①①① |----|
32
口④口① |①--②|
②口③口 |--③-|
口口口口 |④---|
口口口口 |----|
33
口口口口 |①---|
⑤⑤口口 |②---|
口①②口 |③--④|
③①②④ |--⑤-|
34
④口口口 |①---|
口口①① |----|
口口③口 |②--③|
口②口口 |--④-|
35
口口口口 |①---|
②②口口 |----|
口口口口 |②---|
口口①① |----|
36
口口口口 |①--②|
口④口① |--③-|
②口③口 |④---|
口口口口 |----|
37
口①口① |①---|
②口②口 |②---|
口③口③ |③---|
④口④口 |④---|
38
①①①① |①---|
口③②口 |----|
口④④口 |②--③|
口②③口 |--④-|
39
①口口① |①---|
②④④② |②---|
③口口③ |③--④|
口⑤⑤口 |--⑤-|
40
口①口口 |①---|
口⑥②口 |②---|
口口⑤③ |③-④-|
口④口口 |⑤-⑥-|
41
②②①口 |①---|
口口口口 |②---|
口口口口
口口口口

口⑤口口
口口③③
口口口口 |③--④|
口④④口 |--⑤-|
42
口口①口 |①---|
口口口口 |②---|
口②口口
口口口口

口口口口
口④③口
口⑤⑤口 |③--④|
口③④口 |--⑤-|
43
①口口① |①---|
②④④② |②---|
③口口③ |③--④|
口⑤⑤口 |--⑤-|
44
①口口口 |①---|
⑥②口口 |②---|
口口③⑤ |③-④-|
④口口口 |⑤-⑥-|
45
口口①① |①---|
④②②④ |②---|
口③③口 |③--④|
口⑤⑤口 |--⑤-|
46
口①①口 |①---|
口口口口 |②---|
口②口口
口口口口

口口口口
口④③口
口⑤⑤口 |③--④|
口③④口 |--⑤-|
47
①口口① |①---|
②④④② |②---|
③口口③ |③--④|
口⑤⑤口 |--⑤-|
48
口①口口 |①---|
口⑥②口 |②---|
口口⑤③ |③-④-|
口④口口 |⑤-⑥-|
49
②②①口 |①---|
口口口口 |②---|
口口口口
口口口口

口⑤口口
口口③③
口口口口 |③--④|
口④④口 |--⑤-|
50
口口①口 |①---|
口口口口 |②---|
口②口口
口口口口

口口口口
口④③口
口⑤⑤口 |③--④|
口③④口 |--⑤-|
51
①口口① |①---|
②④④② |②---|
③口口③ |③--④|
口⑤⑤口 |--⑤-|
52
①口口口 |①---|
⑥②口口 |②---|
口口③⑤ |③-④-|
④口口口 |⑤-⑥-|
53
口口①① |①---|
④②②④ |②---|
口③③口 |③--④|
口⑤⑤口 |--⑤-|
54
口①①口 |①---|
口口②口 |②---|
③④⑤口 |③--④|
③④⑤口 |--⑤-|
55
①口①口 |①---|
口②口② |②---|
③⑤③④ |③--④|
口⑤口④ |--⑤-|
56
口③②① |①---|
口口口口 |②---|
口⑥④口 |③-④-|
⑤口口口 |⑤-⑥-|
57
口口①① |①---|
④口②② |②---|
④口③③ |③--④|
口⑤⑤口 |--⑤-|
58
口口口口 |①---|
口①①口 |②---|
口口②口
口口口口

口口口口
口口口口
③④⑤口 |③--④|
③④⑤口 |--⑤-|
59
①口①口 |①---|
口②口② |②---|
③⑤③④ |③--④|
口⑤口④ |--⑤-|
60
口③②① |①---|
口口口口 |②---|
口⑥④口 |③-④-|
⑤口口口 |⑤-⑥-|
61
口口①① |①---|
④口②② |②---|
④口③③ |③--④|
口⑤⑤口 |--⑤-|
62
口口口口 |①---|
口①①口 |②---|
口口②口
口口口口

口③口口
⑥口④⑥
口⑤口口 |③-④-|
口口口口 |⑤-⑥-|

accuracy: 99.5%
最終更新:2023年01月17日 11:40