アットウィキロゴ
雑草
HIKAKIN & SEIKIN

EXTREME

Level: 8
BPM: 128
Notes: 673

1
口口口口 |----|
口口口口 |----|
口口口口 |----|
口口口口 |----|
2
口口口② |①---|
④⑤口口 |②---|
③口⑤口 |③--④|
①③④口 |--⑤-|
3
①口口② |①---|
口口①口 |②---|
口②口口
②口口①

⑥口③口
口口口④
③口⑤口 |③--④|
口④口口 |⑤-⑥-|
4
口②口口 |①---|
口口①口 |②---|
口①口①
口口①口

口口③口
口口⑥口
口⑤口口 |③-④-|
④口口口 |⑤-⑥-|
5
口口口① |①---|
②口口口 |②---|
口口口口
口口②口

口口③口
⑥口④③
口⑤口口 |③--④|
④口⑥口 |⑤-⑥-|
6
口②口① |①---|
口①口口 |②---|
口口①口
口口口口

口口口口
④⑤口口
③口⑤口 |③--④|
口③④口 |--⑤-|
7
①口口② |①---|
口口①口 |②---|
口②口口
②口口①

⑥口③口
口口口④
③口⑤口 |③--④|
口④口口 |⑤-⑥-|
8
⑧⑤口③ |①-②-|
④⑥①⑦ |③-④-|
口①⑧① |⑤-⑥-|
②⑦①⑥ |⑦-⑧-|
9
口②口② |①---|
①口口口 |②---|
口口口②
①口①口

口⑤④口
⑤③口④
口口⑤口 |③--④|
④③口③ |--⑤-|
10
①⑧⑦口 |①②③④|
口④③口 |⑤⑥⑦⑧|
口②口①
⑥口①⑤

口口口口
⑩⑪⑪⑨
口⑩⑨口 |⑨--⑩|
口口口口 |--⑪-|
11
①口①① |①---|
②口口口 |②---|
口口口口
口口②②

口口⑥⑥
口口④③
③口③④ |③--④|
⑤口口口 |⑤-⑥-|
12
口①⑥口 |①---|
口②⑤口 |②---|
口③口④ |③-④-|
口⑤①① |⑤-⑥-|
13
①口口口 |①---|
②口口口 |②---|
口口②②
口口①①

口口④③
口口③④
③口口⑥ |③--④|
⑤口口口 |⑤-⑥-|
14
口①口口 |①---|
口②口口 |②---|
口口①口
口口口口

④⑧口③
⑥口口⑤
口口口⑦ |③④⑤⑥|
口口口口 |⑦-⑧-|
15
口口口④ |①--②|
③口口口 |③-④-|
口口口口
口①①②

口口⑦口
⑧⑤⑤口
口⑤⑤口 |⑤-⑥-|
⑥口口口 |⑦-⑧-|
16
口口口② |①--②|
口口口口 |③-④-|
口口口④
③①①口

⑤口⑤口
口⑥口⑥
⑦口⑦口 |⑤-⑥-|
口⑧口⑧ |⑦-⑧-|
17
⑤①口口 |①--②|
①③②⑥ |③-④-|
⑦②口④ |⑤-⑥-|
口口⑧口 |⑦-⑧-|
18
口口⑧④ |①--②|
③⑦口口 |③-④-|
口①⑥② |⑤-⑥-|
口⑤口口 |⑦-⑧-|
19
⑧⑧⑦④ |①--②|
口⑥②⑦ |③-④-|
⑥③口⑤ |⑤-⑥-|
①口⑤① |⑦-⑧-|
20
⑥口⑤② |①--②|
口⑥口⑤ |③-④-|
⑧①①⑦ |⑤-⑥-|
③⑧⑦④ |⑦-⑧-|
21
口口口口 |①--②|
口③①口 |③-④-|
口①口口
④口④②

口⑦口口
⑥口⑥⑧
口口⑤⑤ |⑤-⑥-|
口口口口 |⑦-⑧-|
22
⑤⑤⑥② |①--②|
③⑦口⑥ |③-④-|
⑦①口⑧ |⑤-⑥-|
口口⑧④ |⑦-⑧-|
23
口口②口 |①--②|
③口④口 |③-④-|
口④口口
①口口口

⑦⑧⑧⑥
口⑤口口
口口⑤口 |⑤-⑥-|
⑥口口⑦ |⑦-⑧-|
24
口口口口 |①--②|
口口②口 |③-④-|
口③口口
口①①④

口口口口
口口⑧口
口口口口 |⑤-⑥-|
⑤⑦⑥口 |⑦-⑧-|
25
①③②口 |①--②|
⑦口口④ |③-④-|
⑥口口⑤ |⑤-⑥-|
口口⑧口 |⑦-⑧-|
26
口⑥口⑤ |①--②|
口④①口 |③-④-|
③⑧②⑦ |⑤-⑥-|
口口口口 |⑦-⑧-|
27
⑤口②⑥ |①--②|
⑤③⑥④ |③-④-|
口口口④ |⑤-⑥-|
①口⑧⑦ |⑦-⑧-|
28
口⑦⑧④ |①--②|
口⑥②口 |③-④-|
③⑤口口 |⑤-⑥-|
口①口口 |⑦-⑧-|
29
口口口口 |①--②|
口口口② |③-④-|
③口口口
①口口④

⑤⑥⑤⑥
⑦⑧⑦⑧
口口口口 |⑤-⑥-|
口口口口 |⑦-⑧-|
30
②⑥⑧④ |①--②|
口口口口 |③-④-|
①口①口 |⑤--⑥|
⑤口③⑦ |⑦-⑧-|
31
口口口口 |①---|
③口口③ |②---|
口②④口 |③---|
口①①口 |④---|
32
①口⑥② |①--②|
口③口口 |③-④-|
①④④② |⑤---|
口⑤⑤口 |⑥---|
33
口口口口 |①---|
口②口口 |②---|
①②口口
①口口口

口口③口
口口③④
口口口口 |③--④|
⑤口⑥⑥ |⑤-⑥-|
34
①①⑥口 |①---|
⑥④⑤口 |②---|
口②③④ |③--④|
③口口口 |⑤-⑥-|
35
①口⑧口 |①-②-|
口⑦口② |③-④-|
③口⑥口 |⑤-⑥-|
口⑤口④ |⑦-⑧-|
36
⑤①口口 |①-②-|
口口②⑥ |③-④-|
⑦③口口 |⑤-⑥-|
口口④⑧ |⑦-⑧-|
37
⑨①②⑩ |①②③④|
⑪③④⑫ |⑤⑥⑦⑧|
⑬⑤⑥⑭ |⑨⑩⑪⑫|
⑮⑦⑧⑯ |⑬⑭⑮⑯|
38
口①①口 |①---|
口①①口 |----|
口口口口
口口口口

口口口口
③④口口
②口④口 |②--③|
口②③口 |--④-|
39
①口口② |①---|
口口①口 |②---|
口②口口
②口口①

⑥口③口
口口口④
③口⑤口 |③--④|
口④口口 |⑤-⑥-|
40
口②口口 |①---|
口口①口 |②---|
口①口①
口口①口

口口③口
口口⑥口
口⑤口口 |③-④-|
④口口口 |⑤-⑥-|
41
口口口① |①---|
②口口口 |②---|
口口口口
口口②口

口口③口
⑥口④③
口⑤口口 |③--④|
④口⑥口 |⑤-⑥-|
42
口②口① |①---|
口①口口 |②---|
口口①口
口口口口

口口口口
④⑤口口
③口⑤口 |③--④|
口③④口 |--⑤-|
43
①口口② |①---|
口口①口 |②---|
口②口口
②口口①

⑥口③口
口口口④
③口⑤口 |③--④|
口④口口 |⑤-⑥-|
44
⑥③口② |①---|
口④①⑤ |②---|
口①⑥① |③-④-|
口⑤①④ |⑤-⑥-|
45
口④⑥口 |①---|
①③⑤⑥ |②---|
口②③④ |③--④|
①口①口 |⑤-⑥-|
46
口口口② |①---|
口口口口 |②---|
①口口口
②①口口

口口口口
口口⑤④
口⑤口③ |③--④|
口④③口 |--⑤-|
47
②口口① |①---|
口①口口 |②---|
口口②口
①口口②

口③口⑥
④口口口
口⑤口③ |③--④|
口口④口 |⑤-⑥-|
48
口口②口 |①---|
口①口口 |②---|
①口①口
口①口口

口③口口
口⑥⑥口
口⑤⑤口 |③-④-|
口口④④ |⑤-⑥-|
49
①口①口 |①---|
口口口② |②---|
口口口口
口②口口

口③口口
③④口⑥
口口⑤口 |③--④|
口⑥口④ |⑤-⑥-|
50
①口②口 |①---|
口口①口 |②---|
口①口口
口口口口

口口口口
口口⑤④
口⑤口③ |③--④|
口④③口 |--⑤-|
51
②口口① |①---|
口①口口 |②---|
口口②口
①口口②

口③口⑥
④口口口
口⑤口③ |③--④|
口口④口 |⑤-⑥-|
52
②口口口 |①---|
口①口口 |②---|
①口①口
口①口口

口口③口
口④⑤口
口④⑤口 |③-④-|
⑥口口口 |⑤-⑥-|
53
口②②⑤ |①---|
②④⑤② |②---|
③⑤④③ |③--④|
⑤③③① |--⑤-|
54
①②②口 |①---|
④⑤⑤③ |②---|
口④③口 |③--④|
口口口① |--⑤-|
55
①口①① |①---|
②口口口 |②---|
口口口口
口口②②

口口⑥⑥
口口④③
③口③④ |③--④|
⑤口口口 |⑤-⑥-|
56
口①⑥口 |①---|
口②⑤口 |②---|
口③口④ |③-④-|
口⑤①① |⑤-⑥-|
57
①口口口 |①---|
②口口口 |②---|
口口②②
口口①①

口口④③
口口③④
③口口⑥ |③--④|
⑤口口口 |⑤-⑥-|
58
口①口口 |①---|
口②口口 |②-③④|
④口①口
③口口口

口口口口
⑤⑧⑧⑥
口口口⑦ |⑤-⑥⑦|
口口口口 |--⑧-|
59
①口①① |①---|
②口口口 |②---|
口口口口
口口②②

口口⑥⑥
口口④③
③口③④ |③--④|
⑤口口口 |⑤-⑥-|
60
口①⑥口 |①---|
口②⑤口 |②---|
口③口④ |③-④-|
口⑤①① |⑤-⑥-|
61
①口口口 |①---|
②口口口 |②---|
口口②②
口口①①

口口④③
口口③④
③口口⑥ |③--④|
⑤口口口 |⑤-⑥-|
62
口①口口 |①---|
口②口口 |②---|
口口①口
口口口口

口口口③
④⑧⑧口
口⑧⑧⑤ |③④⑤⑥|
⑥口口⑦ |⑦-⑧-|

accuracy: 99.5%
最終更新:2023年01月17日 11:40