アットウィキロゴ
高嶺の花子さん
back number

BASIC

Level: 2
BPM: 87-138
Notes: 121

1
口口口口 |(87)----|
口口口口 |----|
口口口口 |----|
口口口口 |----|
2
口口口口 |----|
口口口口 |----|
口口口口 |----|
口口口口 |----|
3
口口口口 |----|
口口口口 |----|
口口口口 |----|
口口口口 |----|
4
口口口口 |----|
口口口口 |----|
口口口口 |----|
口口口口 |----|
5
口口口口 |----|
口口口口 |----|
口口口口 |----|
口口口口 |----|
6
口口口口 |①---|
口口①口 |----|
口口口口 |----|
口口口口 |----|
7
口口口口 |①---|
口①口口 |----|
口口口口 |----|
口口口口 |----|
8
口口口口 |①---|
口口口口 |----|
口口①口 |----|
口口口口 |----|
9
口口口口 |①---|
口口口口 |----|
口①口口 |----|
口口口口 |----|
10
口口口口 |----|
口口口口 |----|
口口口口 |----|
口口口口 |----|
11
口口口口 |(138)①---|
口口②① |----|
口口口口 |②---|
口口口口 |----|
12
口口口口 |①---|
②①口口 |----|
口口口口 |②---|
口口口口 |----|
13
口口口口 |①---|
口口口口 |----|
①②口口 |②---|
口口口口 |----|
14
口口口口 |①---|
口口口口 |----|
口口①② |②---|
口口口口 |----|
15
口口口口 |①---|
口口②① |----|
口口口口 |②---|
口口口口 |----|
16
口口口口 |①---|
②①口口 |----|
口口口口 |②---|
口口口口 |----|
17
口口口口 |①---|
口口口口 |----|
①口口口 |----|
口口口口 |----|
18
口口口口 |①---|
口①①口 |②---|
口②②口 |----|
口口口口 |----|
19
口口口① |①---|
口口口口 |----|
口口口口 |----|
口口口口 |----|
20
口①口口 |①---|
口②口口 |----|
口口口口 |②---|
口口口口 |----|
21
口口口口 |①---|
口口口口 |----|
口①口口 |----|
口口口口 |----|
22
口口口口 |①---|
口口口① |----|
口口口口 |----|
口口口口 |----|
23
口①②口 |①---|
口口口口 |----|
口口口口 |②---|
口口口口 |----|
24
口口口口 |①---|
口①②口 |----|
口口口口 |②---|
口口口口 |----|
25
口口口口 |①---|
口口口口 |----|
口①口口 |----|
口口口口 |----|
26
口口口口 |①---|
口①①口 |----|
口口口口 |----|
口口口口 |----|
27
①口口口 |①---|
口口口口 |----|
口口口口 |----|
口口口口 |----|
28
口口①口 |①---|
口口②口 |----|
口口口口 |②---|
口口口口 |----|
29
口口口口 |①---|
口口口口 |----|
口口①口 |----|
口口口口 |----|
30
口口口口 |①---|
①②口口 |----|
口口口口 |②---|
口口口口 |----|
31
口②①口 |①---|
口口口口 |----|
口口口口 |②---|
口口口口 |----|
32
口口口口 |①---|
口②①口 |----|
口口口口 |②---|
口口口口 |----|
33
口口口口 |①---|
口口口口 |----|
口口①口 |----|
口口口口 |----|
34
口口口口 |①---|
口口口口 |----|
①口口口 |----|
口口口口 |----|
35
口口口口 |①---|
①口口口 |----|
口②口口 |②---|
口口口口 |----|
36
口口口口 |①---|
口口口口 |----|
口口口② |②---|
口口①口 |----|
37
口口口口 |①---|
口口口① |----|
口口②口 |②---|
口口口口 |----|
38
口口口口 |①---|
口口口口 |----|
②口口口 |②---|
口①口口 |----|
39
口口口口 |①---|
①口②口 |----|
口口口口 |②---|
口口口口 |----|
40
口口口口 |①---|
口口口口 |----|
①口②口 |②---|
口口口口 |----|
41
口口口口 |①---|
口口口口 |----|
口口口口 |②---|
①口②口 |----|
42
口口口口 |①---|
口口口口 |----|
口①口② |②---|
口口口口 |----|
43
口口口口 |①---|
口①口② |----|
口口口口 |②---|
口口口口 |----|
44
口口口口 |①---|
口①①口 |②---|
口②②口 |----|
口口口口 |----|
45
口口口口 |①---|
口口口口 |②---|
④③②① |③---|
口口口口 |④---|
46
口口口口 |①---|
①口②口 |----|
口口口口 |②---|
口口口口 |----|
47
口口口口 |①---|
口口口口 |②---|
①②③④ |③---|
口口口口 |④---|
48
口口口口 |①---|
口②口① |----|
口口口口 |②---|
口口口口 |----|
49
口口口口 |①---|
④③②① |②---|
口口口口 |③---|
口口口口 |④---|
50
口①口口 |①---|
口口口口 |----|
口②口口 |②---|
口口口口 |----|
51
口口口口 |①---|
①②③④ |②---|
口口口口 |③---|
口口口口 |④---|
52
口①①口 |①---|
口口口口 |----|
口口口口 |----|
口口口口 |----|
53
口口口口 |①---|
口口口口 |②---|
①②③④ |③---|
口口口口 |④---|
54
口口口口 |①---|
口②口① |----|
口口口口 |②---|
口口口口 |----|
55
口口口口 |①---|
口口口口 |②---|
④③②① |③---|
口口口口 |④---|
56
口口口口 |①---|
①口②口 |----|
口口口口 |②---|
口口口口 |----|
57
口口口口 |①---|
口①②口 |②---|
口③④口 |③---|
口口口口 |④---|
58
口口口口 |①---|
口口口口 |②---|
口③④口 |③---|
口①②口 |④---|
59
口口口口 |①---|
口①①口 |----|
口口口口 |----|
口口口口 |----|
60
口口①口 |①---|
口②口口 |②---|
口口③口 |③---|
口④口口 |④---|
61
口口口口 |①---|
口口①口 |----|
口口口口 |----|
口口口口 |----|
62
口口口口 |①---|
口①口口 |----|
口口口口 |----|
口口口口 |----|
63
口口口口 |①---|
口口口口 |----|
口口①口 |----|
口口口口 |----|
64
口口口口 |①---|
口口口口 |----|
口①口口 |----|
口口口口 |----|

accuracy: 99.5%
最終更新:2023年01月17日 10:28