アットウィキロゴ
高嶺の花子さん
back number

ADVANCED

Level: 5
BPM: 87-138
Notes: 334

1
口口口口 |(87)----|
口口口口 |----|
口口口口 |----|
口口口口 |----|
2
口口口口 |----|
口口口口 |----|
口口口口 |----|
口口口口 |----|
3
口口口口 |----|
口口口口 |----|
口口口口 |----|
口口口口 |----|
4
口口口口 |----|
口口口口 |----|
口口口口 |----|
口口口口 |----|
5
口口口口 |----|
口口口口 |----|
口口口口 |----|
口口口口 |----|
6
口口口① |①---|
口②口口 |②---|
口口口③ |③---|
口④口口 |④---|
7
口②口口 |①---|
口口口口 |②---|
①口③口 |③---|
口口口口 |----|
8
①口口口 |①---|
口口②口 |②---|
③口口口 |③---|
口口④口 |④---|
9
口③口口 |①---|
口口②口 |②---|
口口口① |③---|
口口口口 |----|
10
口口口口 |----|
口口口口 |----|
口口口口 |----|
口口口口 |----|
11
②口①① |(138)①---|
④口③口 |②---|
口口口口 |③---|
口口口口 |④---|
12
口口口口 |①---|
口口口口 |②---|
②口①口 |③---|
④口③口 |④---|
13
①①口② |①---|
口③口④ |②---|
口口口口 |③---|
口口口口 |④---|
14
口口口口 |①---|
口口口口 |②---|
口①口② |③---|
口③口④ |④---|
15
①③②① |①---|
口口④口 |②---|
口口口口 |③---|
口口口口 |④---|
16
口口口口 |①---|
口①口口 |②---|
口③②口 |③---|
口口④口 |④---|
17
口口口口 |①---|
口口口口 |②---|
①②③④ |③---|
口口口口 |④---|
18
口①①口 |①-②-|
口②②口 |③-④-|
口③③口 |----|
口④④口 |----|
19
口口口口 |①---|
口口①① |----|
口口口口
口口口口

口口口口
②③④口
口口口口 |--②-|
口口口口 |③-④-|
20
口②口口 |①--②|
口口⑥① |--③-|
口⑤③口 |--④-|
④口口口 |⑤-⑥-|
21
①口口口 |----|
②口口口 |----|
③口口口 |--①-|
口口口口 |②-③-|
22
口口①口 |----|
口②口口 |----|
口口口口 |----|
口口口口 |①-②-|
23
④口口② |①---|
口口口口 |②-③-|
口⑤①③ |--④-|
口口口口 |--⑤-|
24
口口口口 |--①-|
③口①口 |--②-|
口④口口 |--③-|
口②口口 |④---|
25
口口口口 |----|
口口口口 |----|
口①①口 |----|
口口口口 |--①-|
26
口口口口 |①---|
口口口口 |----|
口口口口 |----|
口①①口 |----|
27
口口口口 |①---|
①①口口 |----|
口口口口
口口口口

口口口口
口④③②
口口口口 |--②-|
口口口口 |③-④-|
28
⑥③口② |①--②|
①⑤口口 |--③-|
口口④口 |--④-|
口口口口 |⑤-⑥-|
29
口口口① |----|
口口口② |----|
口口口③ |--①-|
口口口口 |②-③-|
30
①口②口 |----|
③口④口 |①-②-|
⑤口⑥口 |③-④-|
口口口口 |⑤-⑥-|
31
口口口⑤ |①-②-|
③⑥口口 |③-④-|
口④口⑦ |--⑤-|
①口②口 |⑥-⑦-|
32
口①①口 |--①-|
口⑤④③ |--②-|
口②②口 |--③-|
口口口口 |④-⑤-|
33
口口口口 |----|
口口口口 |----|
口口口口 |----|
口口口口 |----|
34
口口口口 |----|
口口口口 |----|
①②口口 |----|
口口口口 |①-②-|
35
口口口② |①---|
口口口口 |②-③-|
口口①③
口口口口

④口口口
口⑤口口
口口⑥口 |--④-|
口口口口 |⑤-⑥-|
36
口①口口 |----|
②⑤④口 |--①-|
口③口口 |②-③-|
口口口口 |④-⑤-|
37
②口①① |①---|
口口口口 |②-③-|
③口口口
口口口口

口④④口
口口口口
口⑤⑤口 |--④-|
口口口口 |--⑤-|
38
口口口口 |----|
口口口口 |--①-|
①口口① |②---|
②④③② |③-④-|
39
口口⑤⑤ |①-②-|
口④③⑦ |③-④-|
口②①⑥ |⑤---|
口口口口 |⑥-⑦-|
40
⑤⑤口口 |①-②-|
⑦③④口 |③-④-|
⑥①②口 |⑤---|
口口口口 |⑥-⑦-|
41
口①口① |----|
③口②口 |①-②-|
口④口口 |--③-|
口口⑤口 |④-⑤-|
42
④①④① |--①-|
口⑤②口 |②-③-|
口③口口 |--④-|
口口口口 |⑤---|
43
口①口口 |--①-|
口⑦②口 |②-③-|
口③⑥口 |④-⑤-|
口⑤④口 |⑥-⑦-|
44
②口①② |①-②-|
③口口③ |③-④-|
④口口④
口口口口

口口口口
口⑤⑥⑦
口口口口 |--⑤-|
口口口口 |⑥-⑦-|
45
①①口口 |①---|
⑦口口⑥ |②-③-|
⑤口口④ |④-⑤-|
口③②口 |⑥-⑦-|
46
②①①① |①---|
口口口口 |②-③-|
③口口口
口口口口

口口④④
口口口口
口口口口 |--④-|
⑤⑤口口 |--⑤-|
47
①②口口 |--①-|
口③④口 |②-③-|
口口⑤⑥ |④-⑤-|
口口口⑦ |⑥-⑦-|
48
①①①② |①---|
口口口口 |②-③-|
口口口③
口口口口

④④口口
口口口口
口口口口 |--④-|
口口⑤⑤ |--⑤-|
49
④口口口 |--①-|
①⑤③口 |②-③-|
口②⑥口 |④-⑤-|
口口口⑦ |⑥-⑦-|
50
口口③口 |①---|
①口①③ |②-③-|
口口口口
口②口口

⑤④口⑤
④口口口
口口口口 |--④-|
口口口口 |--⑤-|
51
口口口口 |----|
口②①口 |①-②-|
口④③口 |③-④-|
口⑥⑤口 |⑤-⑥-|
52
口口口口 |①---|
②口口② |②---|
①口口①
口口口口

③口口③
口口口口
⑥⑤④口 |③-④-|
口口口口 |⑤-⑥-|
53
②⑥⑤口 |①-②-|
口③①① |③-④-|
⑧口④⑦ |⑤-⑥-|
口口口口 |⑦-⑧-|
54
③③口口 |①---|
口口①① |②-③-|
口口口口
②②口口

口口口口
⑤口口⑤
口口口口 |--④-|
口口④④ |--⑤-|
55
口口②① |--①-|
口④③口 |②-③-|
⑥⑤口口 |④-⑤-|
⑦口口口 |⑥-⑦-|
56
口口口口 |①---|
②③口口 |②-③-|
口口①①
口口口口

口⑥⑦口
口口④⑤
口⑥⑦口 |④-⑤-|
口口口口 |⑥-⑦-|
57
①口口① |----|
③③④④ |①-②-|
②口口② |--③-|
口口口口 |--④-|
58
①口①口 |----|
口③③口 |①-②-|
口②口口 |--③-|
口④④口 |--④-|
59
口口口口 |----|
口口口① |----|
口口口口 |----|
口口口口 |--①-|
60
②口口口 |①---|
口口③口 |②-③-|
④⑥①口 |④-⑤-|
口⑥⑤口 |⑥---|
61
口口①① |①---|
②②口口 |②---|
口口③③ |③---|
④④口口 |④---|
62
口口口② |①---|
口口口口 |②---|
口①口③ |③---|
口口口口 |----|
63
①①口口 |①---|
口口②② |②---|
③③口口 |③---|
口口④④ |④---|
64
口口③口 |①---|
口②口口 |②---|
口口①口 |③---|
口口口口 |----|

accuracy: 99.5%
最終更新:2023年01月17日 10:28