アットウィキロゴ
高嶺の花子さん
back number

EXTREME

Level: 8
BPM: 87-138
Notes: 566

1
口口口口 |(87)----|
口口口口 |----|
口口口口 |----|
口口口口 |----|
2
口口口口 |----|
口口口口 |----|
口口口口 |----|
口口口口 |----|
3
口口口口 |----|
口口口口 |----|
口口口口 |----|
口口口口 |----|
4
口口口口 |----|
口口口口 |----|
口口口口 |----|
口口口口 |----|
5
口口口口 |----|
口口口口 |----|
口口②口 |----|
口口口① |①-②-|
6
①①②口 |①---|
①③口③ |②---|
②口口口 |③---|
口口④口 |④---|
7
②口②口 |①---|
口口①口 |②---|
口口口①
口口口口

口口口口
口口口口
口⑤③③ |③---|
口④口口 |④-⑤-|
8
口②①① |①---|
③口③① |②---|
口口口② |③---|
口④口口 |④---|
9
③③③③ |①---|
口②②口 |②---|
①口口① |③---|
口口口口 |----|
10
口口口口 |----|
口口口口 |----|
口口口口 |----|
口口口口 |----|
11
①④③① |(138)①-②-|
③⑥⑦⑤ |③-④-|
⑤②口口 |⑤-⑥-|
⑦⑧口口 |⑦-⑧-|
12
①④口口 |①-②-|
③⑥口口 |③-④-|
⑤②③① |⑤-⑥-|
⑦⑧⑦⑤ |⑦-⑧-|
13
①③④① |①-②-|
⑤⑦⑥③ |③-④-|
口口②⑤ |⑤-⑥-|
口口⑧⑦ |⑦-⑧-|
14
口口④① |①-②-|
口口⑥③ |③-④-|
①③②⑤ |⑤-⑥-|
⑤⑦⑧⑦ |⑦-⑧-|
15
①④③① |①-②-|
③⑥⑦⑤ |③-④-|
⑤②口口 |⑤-⑥-|
⑦⑧口口 |⑦-⑧-|
16
①④口口 |①-②-|
③⑥口口 |③-④-|
⑤②③① |⑤-⑥-|
⑦⑧⑦⑤ |⑦-⑧-|
17
①③③① |①---|
⑦⑥⑤④ |②---|
②口口② |③---|
口口口口 |④⑤⑥⑦|
18
①③③① |①-②-|
口口口口 |③-④-|
②④④② |----|
口口口口 |----|
19
①口口① |①---|
口口②口 |②---|
口口口口
口口口口

口口口口
口口⑥口
口⑤口③ |③-④-|
④口⑤口 |⑤-⑥-|
20
口口①① |①--②|
④口口③ |③-④-|
口口口口
口②口口

口口⑧口
口⑦口口
⑥口⑤口 |⑤-⑥-|
口口口⑦ |⑦-⑧-|
21
口④口① |①---|
⑤口②④ |②---|
口⑥口③ |③-④-|
口⑥⑤口 |⑤-⑥-|
22
④口①口 |①---|
口⑤口② |②---|
口口③口 |③---|
口口口④ |④-⑤-|
23
口⑤①① |①---|
②口②口 |②-③-|
口口⑦④ |④-⑤-|
③口⑥口 |⑥-⑦-|
24
②口①口 |①-②-|
⑥⑥口③ |③-④-|
口④⑤口 |⑤-⑥-|
⑦⑦口⑦ |⑦---|
25
口口口① |①---|
口口②口 |②---|
口口口口
口口口口

口口口口
口⑤⑤口
口口口③ |③---|
口口④口 |④-⑤-|
26
口口①口 |①---|
口口口② |②---|
口口口口
①①口口

口口口口
口口口口
口口③口 |③---|
④口口④ |④---|
27
①口口① |①---|
口②口口 |②---|
口口口口
口口口口

口口口口
口⑥口口
③口⑤口 |③-④-|
口⑤口④ |⑤-⑥-|
28
①①口② |①--②|
③口口口 |③-④-|
口口④口
口口口口

口⑧口口
口口⑦口
口⑤口⑥ |⑤-⑥-|
⑦口口口 |⑦-⑧-|
29
①口口口 |①---|
口②口口 |②---|
口口口口
口口口口

④口④口
口口口⑤
③口⑥口 |③-④-|
口⑤⑥口 |⑤-⑥-|
30
口①口② |①---|
②⑤口③ |②-③-|
口④⑥④ |④-⑤-|
⑥口口⑦ |⑥-⑦-|
31
①口③① |①-②-|
口③②④ |③-④-|
⑤⑧⑦⑥ |⑤-⑥-|
口⑦口口 |⑦-⑧-|
32
口①口口 |①-②-|
③口②② |③-④-|
口口口口
口口④④

口⑥口口
口口⑦口
口⑤口⑧ |⑤-⑥-|
⑦口口口 |⑦-⑧-|
33
①口口口 |①---|
口②口口 |②---|
③口⑤口 |③---|
口④口口 |④-⑤-|
34
①口口① |①---|
口⑤③口 |②---|
口口口口 |③-④-|
②④⑥② |⑤-⑥-|
35
②②①④ |①---|
口⑤口① |②-③-|
口③③⑥ |--④-|
口口口口 |⑤-⑥-|
36
口②③口 |①---|
①④⑥② |--②-|
口②⑤口 |③-④-|
①口口口 |⑤-⑥-|
37
①口口① |①---|
口②口口 |②-③-|
②口口③
口口③口

口④④④
口口口口
⑤⑤口口 |--④-|
口口口口 |--⑤-|
38
口口②口 |①---|
②口口① |--②-|
口⑤②口 |③---|
④③③① |④-⑤-|
39
口②③① |①-②-|
①口口口 |③-④-|
④口③口
口口口口

口口口口
⑦⑤⑦⑤
口⑧口口 |⑤-⑥-|
口⑥口口 |⑦-⑧-|
40
①③④⑦ |①-②-|
⑤⑦⑧③ |③-④-|
口⑤②⑥ |⑤-⑥-|
口口口① |⑦-⑧-|
41
①①②口 |①---|
口口口② |②-③-|
口口③口
口口口③

⑤⑤口口
口口⑥口
⑥口口口 |--④-|
口④④口 |⑤-⑥-|
42
口④①④ |--①-|
②口口口 |②-③-|
口③⑤① |--④-|
口口口口 |⑤---|
43
口⑥⑦口 |①-②-|
⑤①①⑧ |③-④-|
④口口口 |⑤-⑥-|
口③②口 |⑦-⑧-|
44
④口口④ |①-②-|
口②②口 |③-④-|
口口口①
口③③口

口口口口
⑤口口口
口⑥口口 |--⑤-|
口口⑦口 |⑥-⑦-|
45
口②①① |①---|
口③口① |②-③-|
②口口口
口口口口

⑥口⑦⑦
口口口口
口⑥④口 |④-⑤-|
口口口⑤ |⑥-⑦-|
46
口②口口 |①---|
③口②口 |②-③-|
②口口口
口①①口

⑤口④口
口④口口
口⑤口⑥ |--④-|
口口⑥口 |⑤-⑥-|
47
③口④① |--①-|
②⑥口口 |②-③-|
口⑤②⑦ |④-⑤-|
⑥②口口 |⑥-⑦-|
48
口①④① |①---|
②⑤②④ |②-③-|
口③⑥口 |--④-|
⑤②口⑥ |⑤-⑥-|
49
⑥②④① |--①-|
③⑤②口 |②-③-|
②⑥⑥口 |④-⑤-|
口口口⑦ |⑥-⑦-|
50
口②③③ |①---|
口口①① |②-③-|
②口口口
口口口口

⑤口口口
口口⑥口
口⑤④⑥ |--④-|
口口④口 |⑤-⑥-|
51
口④口口 |----|
⑤①⑤② |①-②-|
口⑥③口 |③-④-|
①⑤口口 |⑤-⑥-|
52
②口③③ |①-②-|
口口口⑥ |③-④-|
⑤口⑦⑤ |⑤-⑥-|
④⑧①① |⑦-⑧-|
53
①①③② |①-②-|
①口④口 |③-④-|
口口口③
口口口口

⑧⑧口⑦
口口口口
口⑤⑦口 |⑤-⑥-|
⑥口口口 |⑦-⑧-|
54
口口②口 |①---|
②口口③ |②-③-|
口口口②
口①①口

口④口⑤
口口④口
⑥口⑤口 |--④-|
口⑥口口 |⑤-⑥-|
55
①口口口 |--①-|
③口口② |②-③-|
口②口口
口口②口

口④口口
口口⑥口
口⑦⑤口 |④-⑤-|
口口口⑥ |⑥-⑦-|
56
①口①口 |①---|
③口口② |②-③-|
口口口口
口口②口

⑦⑦口口
口口⑥口
口⑥④口 |④-⑤-|
⑤口口⑥ |⑥-⑦-|
57
口口①口 |----|
①口④④ |①-②-|
③③口① |--③-|
口②②口 |--④-|
58
①口①口 |----|
口③③口 |①-②-|
③②口③ |--③-|
④④④④ |--④-|
59
口口①① |①---|
口口口口 |②---|
口口②口
口口口口

③③口⑤
口口口口
口④口口 |③---|
口口口口 |④-⑤-|
60
⑤⑤④口 |①---|
口③①④ |②-③-|
②⑦②口 |④-⑤-|
口③⑥⑥ |⑥-⑦-|
61
口口②① |①---|
口口①② |②---|
④③口口 |③---|
③④口口 |④---|
62
②②口口 |①---|
口口口口 |②---|
口口①①
口口口口

口口口口
口③③口
口口⑤口 |③---|
④口口口 |④-⑤-|
63
②①口口 |①---|
①②口口 |②---|
口口④③ |③---|
口口③④ |④---|
64
③③口口 |①---|
口口②② |②---|
①①口口 |③---|
口口口口 |----|

accuracy: 99.5%
最終更新:2023年01月17日 10:29