アットウィキロゴ
タンクトップは似合わない
ONIGAWARA

BASIC

Level: 2
BPM: 128
Notes: 168

1
口口口口 |----|
口口口口 |----|
口口口口 |----|
口口口口 |----|
2
口口口口 |----|
口口口口 |----|
口口口口 |----|
口口口口 |----|
3
口口口口 |①---|
②口①口 |----|
口口口口 |②---|
口口口口 |----|
4
口口口口 |①---|
口口口口 |----|
②口①口 |②---|
口口口口 |----|
5
口口口口 |①---|
口口口口 |----|
口口口口 |②---|
②口①口 |----|
6
口口口口 |①---|
口口口口 |----|
口②口口 |②---|
口①口口 |----|
7
口口口口 |①---|
①口②口 |----|
口口口口 |②---|
口口口口 |----|
8
口①口口 |①---|
口口②口 |②---|
口口口口 |----|
口口口口 |----|
9
口口口口 |①---|
口②口① |----|
口口口口 |②---|
口口口口 |----|
10
口口①口 |①---|
口②口口 |②---|
口口口口 |----|
口口口口 |----|
11
口口口口 |①---|
口口口口 |②---|
①②③口 |③---|
口口口口 |----|
12
口口口口 |①---|
口①口口 |②---|
口②口口 |----|
口口口口 |----|
13
口口口口 |①---|
口口口口 |----|
口②口① |②---|
口口口口 |----|
14
口口口口 |①---|
口口①口 |②---|
口口②口 |③---|
口口③口 |----|
15
口口口口 |①---|
口口口口 |----|
口①口口 |----|
口①口口 |----|
16
口口口口 |①---|
口口口口 |----|
口口①口 |----|
口口①口 |----|
17
③口口口 |①---|
口①②口 |----|
口①②口 |②---|
口口口口 |--③-|
18
口①②③ |--①-|
口④④口 |--②-|
口口口口 |--③-|
口口口口 |--④-|
19
①口口口 |----|
口口口口 |----|
口口口口 |①---|
口口口口 |----|
20
口口口口 |①---|
①口口口 |----|
②口口口 |②---|
口口口口 |----|
21
口口口口 |①---|
口口口口 |----|
口口口口 |②---|
①②口口 |----|
22
口口口口 |①---|
口①①口 |②---|
口②②口 |③---|
口③③口 |----|
23
口口口口 |①---|
口口④④ |②---|
口③②① |③---|
口口口口 |--④-|
24
①口口口 |----|
②口口口 |----|
口口口口 |①---|
口口口口 |②---|
25
口口口口 |①---|
口口口口 |②---|
①②③④ |③---|
口口口口 |④---|
26
口口口口 |①---|
口②口① |----|
口口口口 |②---|
口口口口 |----|
27
口口口口 |①---|
④④口口 |②---|
①②③口 |③---|
口口口口 |--④-|
28
口口口① |----|
口口口② |----|
口口口口 |①---|
口口口口 |②---|
29
口口口口 |①---|
口口口口 |②---|
④③②① |③---|
口口口口 |④---|
30
口口口口 |①---|
①口②口 |----|
口口口口 |②---|
口口口口 |----|
31
口①口口 |①---|
口②口口 |②---|
口口口口 |----|
口口口口 |----|
32
口口口① |①---|
口②口口 |②---|
口口口③ |③---|
口④口口 |④---|
33
口口口口 |①---|
口口口口 |----|
口①①口 |----|
口口口口 |----|
34
口口口口 |①---|
口①①口 |----|
口口口口 |----|
口口口口 |----|
35
口口口口 |①---|
口口口① |----|
口②口口 |②---|
口口口口 |----|
36
口口口口 |①---|
口口①口 |②---|
口口②口 |----|
口口口口 |----|
37
口口口口 |①---|
①口口口 |----|
口口②口 |②---|
口口口口 |----|
38
口口口口 |①---|
口①口口 |②---|
口②口口 |③---|
口③口口 |----|
39
口口口口 |①---|
口口口口 |②---|
①②③口 |③---|
口口口口 |----|
40
口口口口 |①---|
口①口口 |②---|
口②口口 |----|
口口口口 |----|
41
口口口口 |①---|
口③②① |②---|
口口口口 |③---|
口口口口 |----|
42
口①口口 |①---|
口口②口 |②---|
口③口口 |③---|
口口口口 |----|
43
口口口口 |①---|
口口①① |----|
口②口口 |②---|
口口口口 |----|
44
口口口口 |①---|
①①口口 |----|
口口②口 |②---|
口口口口 |----|
45
③口口口 |①---|
口①①口 |----|
口②②口 |②---|
口口口口 |--③-|
46
口①②③ |--①-|
口④④口 |--②-|
口口口口 |--③-|
口口口口 |--④-|
47
口口口① |----|
口口口口 |----|
口口口口 |①---|
口口口口 |----|
48
口口口口 |①---|
口口口① |----|
口口口② |②---|
口口口口 |----|
49
口口口口 |①---|
口口口口 |----|
口口口口 |②---|
口口②① |----|
50
口口口口 |①---|
口①①口 |②---|
口②②口 |③---|
口③③口 |----|
51
口口口口 |①---|
口口④④ |②---|
口③②① |③---|
口口口口 |--④-|
52
①口口口 |----|
②口口口 |----|
口口口口 |①---|
口口口口 |②---|
53
口口口口 |①---|
口口口口 |②---|
①②③④ |③---|
口口口口 |④---|
54
口口口口 |①---|
口②口① |----|
口口口口 |②---|
口口口口 |----|
55
口口口口 |①---|
④④口口 |②---|
①②③口 |③---|
口口口口 |--④-|
56
口口口① |----|
口口口② |----|
口口口口 |①---|
口口口口 |②---|
57
口口口口 |①---|
口口口口 |②---|
④③②① |③---|
口口口口 |④---|
58
口口口口 |①---|
①口②口 |----|
口口口口 |②---|
口口口口 |----|
59
口①口口 |①---|
口②口口 |②---|
口口口口 |----|
口口口口 |----|
60
口口口① |①---|
口②口口 |②---|
口口口③ |③---|
口④口口 |④---|
61
口口口口 |①---|
口口口口 |----|
口①①口 |----|
口口口口 |----|

accuracy: 99.5%
最終更新:2023年01月17日 11:37