アットウィキロゴ
タンクトップは似合わない
ONIGAWARA

ADVANCED

Level: 6
BPM: 128
Notes: 403

1
口口口口 |----|
口口口口 |----|
口口口口 |----|
口口口口 |----|
2
口口口口 |----|
①口口① |----|
②口口② |①---|
口口口口 |②---|
3
口口①口 |①---|
口②口口 |②---|
口口③口 |③---|
口④口口 |④---|
4
口口口口 |①---|
④口口① |②---|
口③②口 |③---|
口口口口 |④---|
5
口①口口 |①---|
口口②口 |②---|
口③口口 |③---|
口口④口 |④---|
6
口④④口 |①---|
口①②口 |②---|
①③③② |③---|
口口口口 |④---|
7
①口口口 |①-②-|
口②⑤⑤ |③-④-|
口口③口 |⑤--⑥|
⑥⑥口④ |----|
8
⑤①④④ |①-②-|
口②口口 |③--④|
口③口口 |----|
口口口口 |⑤---|
9
口口口① |①-②-|
⑤⑤②口 |③-④-|
口③口口 |⑤--⑥|
④口⑥⑥ |----|
10
④口①口 |①-②-|
口口②口 |③--④|
口⑤③口 |-⑤--|
口口口口 |----|
11
口口①口 |①---|
③②③① |②---|
口口②口 |③--④|
④口④口 |----|
12
④④①⑤ |①-②-|
口②口口 |③--④|
口口③口 |--⑤-|
口口口口 |----|
13
⑥⑥口④ |①-②-|
口口③口 |③-④-|
口②⑤⑤ |⑤--⑥|
①口口口 |----|
14
⑦口口口 |①-②-|
⑥③口口 |③--④|
⑤②口口 |--⑤-|
口①④④ |⑥-⑦-|
15
口口口⑥ |--①-|
口口①⑤ |②-③-|
口②口④ |--④-|
③口口口 |⑤-⑥-|
16
口⑥口口 |--①-|
口①⑤口 |②-③-|
口④②口 |--④-|
口口口③ |⑤-⑥-|
17
口口②口 |--①-|
①③口① |--②-|
⑥口④⑥ |③-④-|
口⑤口口 |⑤-⑥-|
18
②口口② |--①-|
①口口① |--②-|
口口口口
口口口口

口口口口
④④④④
口③③口 |--③-|
口口口口 |--④-|
19
口口①口 |----|
口②口口 |----|
口口③口 |①-②-|
口④口口 |③-④-|
20
口口口③ |--①-|
①口④口 |②---|
②⑤口口 |③-④-|
⑥口口口 |⑤-⑥-|
21
口口口口 |--①-|
口①口口 |②-③-|
口口②口
口③口口

口口口口
口⑥⑤④
口口口口 |--④-|
口口口口 |⑤-⑥-|
22
①口⑦口 |①-②-|
②⑧口⑥ |③-④-|
③⑤⑤口 |⑤-⑥-|
④口口口 |⑦-⑧-|
23
①①③口 |①---|
口③⑤⑤ |②---|
②②④口 |③--④|
口④口口 |--⑤-|
24
口②口① |----|
口④口③ |--①-|
口口口⑤ |②-③-|
口口口口 |④-⑤-|
25
口口口口 |①-②-|
①口③口 |③-④-|
②口④口
口口口口

口口口口
⑧⑤口⑧
口⑥口口 |⑤-⑥-|
口⑦口口 |⑦-⑧-|
26
口④口口 |--①-|
③口⑤口 |--②-|
口②②口 |--③-|
①口口① |④-⑤-|
27
口③①① |①---|
⑤⑤③口 |②---|
口④②② |③--④|
口口④口 |--⑤-|
28
①口②口 |----|
③口④口 |--①-|
⑤口口口 |②-③-|
口口口口 |④-⑤-|
29
口口口口 |①-②-|
口③口① |③-④-|
口④口②
口口口口

口口口口
⑧口⑤⑧
口口⑥口 |⑤-⑥-|
口口⑦口 |⑦-⑧-|
30
口口③口 |--①-|
口④口口 |--②-|
⑤②②口 |--③-|
①口口① |④-⑤-|
31
①口口口 |--①-|
口口②口 |②---|
口口口口
口口口口

口口口口
口口③口
口口口口 |----|
口口口口 |--③-|
32
口口口口 |①-②-|
⑤①口⑤ |③-④-|
⑥③②⑥ |⑤--⑥|
⑦口④⑦ |--⑦-|
33
口口口口 |-①--|
口①①口 |----|
口口口口 |----|
口口口口 |----|
34
口口口口 |①---|
④口口① |②---|
口③②口 |③---|
口口口口 |④---|
35
口口口口 |①-②-|
口③②① |③-④-|
口④⑤⑥ |⑤-⑥-|
口口口口 |----|
36
口④口⑤ |①-②-|
①口③口 |③-④-|
口②口口 |----|
口口口口 |⑤---|
37
口口口口 |①-②-|
口口口口 |③-④-|
①②③口 |⑤-⑥-|
⑥⑤④口 |----|
38
口①口④ |①-②-|
口②口口 |③--④|
口③⑤口 |-⑤--|
口口口口 |----|
39
①口口口 |①-②-|
口②⑤⑤ |③-④-|
口口③口 |⑤--⑥|
⑥⑥口④ |----|
40
口①④④ |①-②-|
口②口口 |③--④|
口③口口 |----|
口口口口 |----|
41
口②③口 |①-②-|
①口口④ |③-④-|
⑧口口⑤ |⑤-⑥-|
口⑦⑥口 |⑦-⑧-|
42
⑤①④④ |①-②-|
⑥口②口 |③--④|
⑦③口口 |--⑤-|
口口口口 |⑥-⑦-|
43
口口口④ |--①-|
口口①⑤ |②-③-|
口②口⑥ |--④-|
③口口口 |⑤-⑥-|
44
④口口④ |--①-|
⑤①口⑤ |②-③-|
⑥口②⑥ |--④-|
口口口③ |⑤-⑥-|
45
口口②口 |--①-|
口口口口 |--②-|
口口口口
口①①口

口口口口
口③口口
⑥口④⑥ |③-④-|
口⑤口口 |⑤-⑥-|
46
②口口② |--①-|
①口口① |--②-|
口口口口
口口口口

口口口口
④④④④
口③③口 |--③-|
口口口口 |--④-|
47
口口①口 |----|
口②口口 |----|
口口③口 |①-②-|
口④口口 |③-④-|
48
口口口③ |--①-|
①口④口 |②---|
②⑤口口 |③-④-|
⑥口口口 |⑤-⑥-|
49
口口口口 |--①-|
口①口口 |②-③-|
口口②口
口③口口

口口口口
口⑥⑤④
口口口口 |--④-|
口口口口 |⑤-⑥-|
50
①口⑦口 |①-②-|
②⑧口⑥ |③-④-|
③⑤⑤口 |⑤-⑥-|
④口口口 |⑦-⑧-|
51
①①③口 |①---|
口③⑤⑤ |②---|
②②④口 |③--④|
口④口口 |--⑤-|
52
口②口① |----|
口④口③ |--①-|
口口口⑤ |②-③-|
口口口口 |④-⑤-|
53
口口口口 |①-②-|
①口③口 |③-④-|
②口④口
口口口口

口口口口
⑧⑤口⑧
口⑥口口 |⑤-⑥-|
口⑦口口 |⑦-⑧-|
54
口④口口 |--①-|
③口⑤口 |--②-|
口②②口 |--③-|
①口口① |④-⑤-|
55
口③①① |①---|
⑤⑤③口 |②---|
口④②② |③--④|
口口④口 |--⑤-|
56
①口②口 |----|
③口④口 |--①-|
⑤口口口 |②-③-|
口口口口 |④-⑤-|
57
口口口口 |①-②-|
口③口① |③-④-|
口④口②
口口口口

口口口口
⑧口⑤⑧
口口⑥口 |⑤-⑥-|
口口⑦口 |⑦-⑧-|
58
口口③口 |--①-|
口④口口 |--②-|
⑤②②口 |--③-|
①口口① |④-⑤-|
59
①口口口 |--①-|
口口②口 |②---|
口口口口
口口口口

口口口口
口口③口
口口口口 |----|
口口口口 |--③-|
60
口口口口 |①-②-|
⑤①口⑤ |③-④-|
⑥③②⑥ |⑤--⑥|
⑦口④⑦ |--⑦-|
61
口口口口 |-①--|
口①①口 |----|
口口口口 |----|
口口口口 |----|

accuracy: 99.5%
最終更新:2023年01月17日 11:38