アットウィキロゴ
タンクトップは似合わない
ONIGAWARA

EXTREME

Level: 9.0
BPM: 128
Notes: 674

1
口口口口 |----|
口口口口 |----|
口口口口 |----|
口口口口 |----|
2
口口口口 |----|
口①口口 |----|
⑤④③② |①---|
口①口口 |②③④⑤|
3
口口①⑥ |①-②-|
②⑤④① |③-④⑤|
口⑦口口 |⑥--⑦|
口③口⑧ |--⑧-|
4
口①口口 |①-②-|
①④口② |③-④⑤|
口口⑤口
口口③口

口⑦⑦口
口口口口
口口口口 |⑥---|
⑥⑥口口 |⑦---|
5
口⑥⑥③ |①-②-|
①④⑤口 |③-④-|
⑦②口⑦ |⑤---|
口口口口 |⑥-⑦-|
6
口③口① |①---|
口口口口 |②---|
口口②口 |③---|
⑦⑥⑤④ |④⑤⑥⑦|
7
口口口① |①-②-|
口⑤④② |③-④⑤|
口口口③
口口口口

⑨⑧⑩⑧
⑪口口口
⑦⑥⑧口 |⑥⑦-⑧|
口口口口 |-⑨⑩⑪|
8
⑥口口⑤ |①-②-|
口口①① |③④-⑤|
③④口⑤ |----|
口②②口 |⑥---|
9
口⑧口⑧ |①-②-|
④⑤口① |③-④⑤|
口⑥⑦② |⑥⑦-⑧|
⑨⑨口③ |--⑨-|
10
⑤口⑦⑦ |①-②-|
①①口口 |③④-⑤|
②②⑥③ |-⑥--|
⑧⑧④口 |⑦-⑧-|
11
口①口③ |①---|
①②②口 |②--③|
口②②①
口口①口

口⑤④口
⑦口口口
口口口口 |④⑤-⑥|
口口⑥⑥ |---⑦|
12
口口⑥口 |①②③④|
口⑤①③ |⑤⑥-⑦|
②口④口
⑦⑦口口

口⑧口口
口口口⑨
⑧口口口 |--⑧-|
口口口口 |⑨---|
13
①⑧口⑧ |①-②-|
②口⑤④ |③-④⑤|
③⑦⑥口 |⑥⑦-⑧|
⑨⑩⑪口 |-⑨⑩⑪|
14
⑧⑤⑥⑥ |①-②③|
②⑨④口 |④⑤-⑥|
⑩③⑦⑦ |-⑦⑧-|
口口口① |⑨-⑩-|
15
口口口① |①-②-|
②口口① |③-④-|
口③口口
口口④口

口⑤口⑥
口⑤⑦口
口口口⑧ |⑤-⑥-|
口口口口 |⑦-⑧-|
16
①口口口 |①-②-|
①口口② |③-④-|
口口③口
口④口口

⑥口⑤⑥
⑧口⑤⑧
⑦口口⑦ |⑤-⑥-|
口口口口 |⑦-⑧-|
17
④①③④ |①-②-|
⑧⑤⑤⑧ |③-④-|
⑥②②⑥ |⑤-⑥-|
口⑦⑦口 |⑦-⑧-|
18
口④④口 |--①-|
口②②④ |--②-|
③口④③ |--③-|
①口口① |--④-|
19
②⑥③口 |①---|
口口⑤③ |②---|
口④口口 |③-④-|
口口①口 |⑤-⑥-|
20
③口③口 |①-②-|
口④口口 |③--④|
②口口口
口口口①

⑧⑧口⑥
口口⑦口
口口⑤口 |⑤-⑥-|
口口口口 |⑦-⑧-|
21
口口口口 |--①-|
口②口① |②-③-|
口②③①
口口③口

⑤口口④
口口口⑥
口口口口 |--④-|
口口口口 |⑤-⑥-|
22
口口口口 |①-②-|
①口口口 |③-④-|
③口口②
口口口④

⑥口⑥口
口⑤⑤⑤
口⑧⑧⑧ |⑤-⑥-|
⑦口⑦口 |⑦-⑧-|
23
口①④① |①---|
口③口口 |②-③④|
口口口口
口②口②

⑥口口口
⑦口⑦⑤
⑦⑦⑦口 |⑤--⑥|
⑦⑦⑦口 |--⑦-|
24
口①口② |----|
口③口口 |①-②-|
口口⑥④ |③-④-|
口⑤⑥口 |⑤-⑥-|
25
④④①① |①-②③|
②口口⑤ |④-⑤⑥|
口③⑥口
口口口口

口⑩⑨⑩
口⑧口口
⑦口口口 |⑦-⑧-|
口口口口 |⑨-⑩-|
26
②口②口 |--①-|
②口②口 |--②-|
口口口口
口①口①

口③口③
口口口口
⑤⑤⑤口 |--③-|
口④口④ |④-⑤-|
27
①④①口 |①---|
口口③口 |②-③④|
口口口口
②口②口

口口口⑥
⑤⑦口⑦
口⑦⑦⑦ |⑤--⑥|
口⑦⑦⑦ |--⑦-|
28
②口①口 |----|
口口③口 |①-②-|
④⑥口口 |③-④-|
口⑥⑤口 |⑤-⑥-|
29
②口③口 |①-②③|
④口⑤① |④⑤⑥⑦|
⑥口⑦①
口口口口

⑪⑧⑪⑨
口口口口
口⑩口口 |⑧-⑨-|
口口口口 |⑩-⑪-|
30
口③口口 |--①-|
③口⑤口 |②-③-|
口⑥②④ |--④-|
口①口① |⑤-⑥-|
31
口口①① |--①-|
②②口③ |②---|
口口⑤口 |③---|
口口口④ |④-⑤-|
32
①①⑥口 |①-②-|
口⑤②⑥ |③-④-|
⑤⑦⑦口 |⑤--⑥|
③③④口 |--⑦-|
33
①①口② |①-②③|
口口③口 |-④-⑤|
⑤口口口
口④口口

⑦口口⑨
口⑧口口
口口⑥口 |-⑥-⑦|
口口口口 |⑧-⑨-|
34
⑨⑤口⑦ |①-②③|
④口⑧② |-④-⑤|
口⑥③口 |-⑥-⑦|
①①口口 |⑧-⑨-|
35
口口①口 |①-②③|
⑤④口口 |④⑤⑥⑦|
⑥口③②
口⑦口口

⑬⑧⑫⑫
口口⑨口
口⑩口口 |⑧⑨⑩⑪|
口口⑪口 |-⑫-⑬|
36
⑨口口口 |①②③④|
⑤①⑤口 |⑤-⑥⑦|
⑧口②⑥ |⑧---|
口④⑦③ |⑨---|
37
口②口① |①②③④|
口④口③ |⑤⑥⑦⑧|
口⑥口⑤
口⑧口⑦

⑬⑭⑮口
⑨口⑩口
⑪口⑫口 |⑨⑩⑪⑫|
口口口口 |-⑬⑭⑮|
38
口⑦口⑦ |①②③④|
口⑤口口 |⑤⑥-⑦|
口②⑥④
①口③口

口口口口
⑨口口口
口⑫口⑩ |-⑧--|
⑧⑧⑪口 |⑨⑩⑪⑫|
39
⑦⑦①⑥ |①-②③|
口③④⑤ |④⑤⑥⑦|
②口口口
口口口口

口口口口
口⑩⑪⑫
⑨⑨⑨⑨ |-⑧-⑨|
⑧⑨⑨⑧ |-⑩⑪⑫|
40
①②③④ |①②③④|
⑥⑥⑥口 |⑤--⑥|
⑥⑤⑥口
⑥口⑥口

口口口⑦
口口口口
口口口口 |----|
口口口口 |---⑦|
41
口④④口 |①②③-|
口⑤①⑦ |④⑤⑥⑦|
口②⑥⑦
③口口口

⑧口口⑨
⑧口口口
⑪⑫⑬口 |-⑧-⑨|
口⑩⑩口 |⑩⑪⑫⑬|
42
⑧③①⑤ |①-②③|
②⑨④① |④⑤-⑥|
⑩⑥口⑦ |-⑦⑧-|
口⑥口⑦ |⑨-⑩-|
43
口口口① |①-②-|
②口口① |③-④-|
口③口口
口口④口

口⑤口⑥
口⑤⑦口
口口口⑧ |⑤-⑥-|
口口口口 |⑦-⑧-|
44
①口口口 |①-②-|
①口口② |③-④-|
口口③口
口④口口

⑥口⑤⑥
⑧口⑤⑧
⑦口口⑦ |⑤-⑥-|
口口口口 |⑦-⑧-|
45
④①③④ |①-②-|
⑧⑤⑤⑧ |③-④-|
⑥②②⑥ |⑤-⑥-|
口⑦⑦口 |⑦-⑧-|
46
口④④口 |--①-|
口②②④ |--②-|
③口④③ |--③-|
①口口① |--④-|
47
口口口口 |①-②③|
②③④口 |④---|
口口口口
口口①口

口⑧⑤口
口⑦口⑤
口⑥口口 |⑤-⑥-|
口口口口 |⑦-⑧-|
48
③口③口 |①-②-|
口口口口 |③-④-|
②④口口
口口口①

⑧⑧口⑥
口口⑦口
口口⑤口 |⑤-⑥-|
口口口口 |⑦-⑧-|
49
口口口口 |--①-|
口②口① |②-③-|
口②③①
口口③口

⑤口口④
口口口⑥
口口口口 |--④-|
口口口口 |⑤-⑥-|
50
口口口口 |①-②-|
①口口口 |③-④-|
③口口②
口口口④

⑥口⑥口
口⑤⑤⑤
口⑧⑧⑧ |⑤-⑥-|
⑦口⑦口 |⑦-⑧-|
51
口①④① |①---|
口③口口 |②-③④|
口口口口
口②口②

⑥口口口
⑦口⑦⑤
⑦⑦⑦口 |⑤--⑥|
⑦⑦⑦口 |--⑦-|
52
口①口② |----|
口③口口 |①-②-|
口口⑥④ |③-④-|
口⑤⑥口 |⑤-⑥-|
53
④④①① |①-②③|
②口口⑤ |④-⑤⑥|
口③⑥口
口口口口

口⑩⑨⑩
口⑧口口
⑦口口口 |⑦-⑧-|
口口口口 |⑨-⑩-|
54
②口②口 |--①-|
②口②口 |--②-|
口口口口
口①口①

口③口③
口口口口
⑤⑤⑤口 |--③-|
口④口④ |④-⑤-|
55
①④①口 |①---|
口口③口 |②-③④|
口口口口
②口②口

口口口⑥
⑤⑦口⑦
口⑦⑦⑦ |⑤--⑥|
口⑦⑦⑦ |--⑦-|
56
②口①口 |----|
口口③口 |①-②-|
④⑥口口 |③-④-|
口⑥⑤口 |⑤-⑥-|
57
②口③口 |①-②③|
④口⑤① |④⑤⑥⑦|
⑥口⑦①
口口口口

⑪⑧⑪⑨
口口口口
口⑩口口 |⑧-⑨-|
口口口口 |⑩-⑪-|
58
口③口口 |--①-|
③口⑤口 |②-③-|
口⑥②④ |--④-|
口①口① |⑤-⑥-|
59
口口①① |--①-|
②②口③ |②---|
口口⑤口 |③---|
口口口④ |④-⑤-|
60
①①⑥口 |①-②-|
口⑤②⑥ |③-④-|
⑤⑦⑦口 |⑤--⑥|
③③④口 |--⑦-|
61
①口口① |-①--|
口①①口 |----|
口口口口 |----|
口口口口 |----|

accuracy: 99.5%
最終更新:2023年01月17日 11:38