アットウィキロゴ
ダンシング
佐伯ユウスケ

BASIC

Level: 2
BPM: 159
Notes: 133

1
口口口口 |----|
口口口口 |----|
口口口口 |----|
口口口口 |----|
2
口口口口 |----|
口口口口 |----|
口口口口 |----|
口口口口 |----|
3
口口口口 |----|
口口口口 |----|
口口口口 |----|
口口口口 |----|
4
口口口口 |----|
口口口口 |----|
口口口口
口口口口
5
口口口口 |①---|
口口口口 |----|
口①①口 |----|
口口口口 |----|
6
口口口口 |①---|
口②①口 |----|
口口口口 |②---|
口口口口 |----|
7
口①①口 |①---|
口口口口 |----|
口口口口 |----|
口口口口 |----|
8
口口口口 |①---|
口②①口 |----|
口口口口 |②---|
口口口口 |----|
9
口口口口 |①---|
口口口口 |----|
口①①口 |----|
口口口口 |----|
10
口口口口 |①---|
①口口① |----|
口口口口 |----|
口口口口 |----|
11
口口①口 |①---|
口口口口 |----|
口口口口 |----|
口口口口 |----|
12
口口口口 |①---|
口口①口 |----|
口口口口 |----|
口口口口 |----|
13
口口口口 |①---|
口口口口 |----|
口口①口 |----|
口口口口 |----|
14
口口口口 |①---|
口口口口 |----|
口口口口 |----|
口口①口 |----|
15
口口口口 |①---|
口口口口 |----|
口口口口 |----|
口①口口 |----|
16
口口口口 |①---|
口口口口 |----|
口①口口 |----|
口口口口 |----|
17
口口口口 |①---|
①②③口 |②---|
口口口口 |③---|
口口口口 |----|
18
口①①口 |----|
口口口口 |----|
口口口口 |①---|
口口口口 |----|
19
①口口口 |①---|
口口口口 |----|
口口口口 |----|
口口口口 |----|
20
口口口口 |①---|
口①口口 |----|
口口口口 |----|
口口口口 |----|
21
口口口口 |①---|
口口口口 |----|
口口①口 |----|
口口口口 |----|
22
口口口口 |----|
口口口口 |----|
口口口口 |----|
口口口口 |----|
23
口口口口 |①---|
口①①口 |----|
口口口口 |----|
口口口口 |----|
24
口口口口 |①---|
口口口口 |----|
口①①口 |----|
口口口口 |----|
25
口口口口 |①---|
口口口口 |----|
口口口口 |----|
口①①口 |----|
26
口口口口 |①---|
口口口口 |----|
口口②① |②---|
口口口口 |----|
27
口口口口 |①---|
①口口口 |----|
口口口口 |----|
口口口口 |----|
28
口口口口 |①---|
口口口① |----|
口口口口 |----|
口口口口 |----|
29
口口口口 |①---|
口①口口 |----|
口②口口 |②---|
口口口口 |----|
30
口口口口 |①---|
口口①口 |----|
口口②口 |②---|
口口口口 |----|
31
口口口口 |①---|
口口口① |----|
口口口口 |----|
口口口口 |----|
32
口口口口 |①---|
①口口口 |----|
口口口口 |----|
口口口口 |----|
33
口口口口 |①---|
口①①口 |----|
口②②口 |②---|
口口口口 |----|
34
口口口口 |①---|
口①①口 |----|
口②②口 |②---|
口口口口 |----|
35
口口口口 |①---|
口①①口 |----|
口②②口 |②---|
口口口口 |----|
36
口口口口 |①---|
口①①口 |----|
口②②口 |②---|
口口口口 |----|
37
口口口口 |①---|
口口②① |----|
口口口口 |②---|
口口口口 |----|
38
口口口口 |①---|
②①口口 |----|
口口口口 |②---|
口口口口 |----|
39
口口口口 |①---|
口口口口 |----|
①②口口 |②---|
口口口口 |----|
40
口口口口 |①---|
口口口口 |----|
口口①② |②---|
口口口口 |----|
41
口口口口 |①---|
口②①口 |----|
口口口口 |②---|
口口口口 |----|
42
口口口口 |①---|
口③②① |②---|
口口口口 |③---|
口口口口 |----|
43
①①口口 |①---|
口口口口 |----|
②②口口 |②---|
口口口口 |----|
44
口口口口 |①---|
①②③④ |②---|
口口口口 |③---|
口口口口 |④---|
45
口口①① |①---|
口口口口 |----|
口口②② |②---|
口口口口 |----|
46
口口口口 |①---|
④③②① |②---|
口口口口 |③---|
口口口口 |④---|
47
①①口口 |①---|
口口口口 |----|
②②口口 |②---|
口口口口 |----|
48
口口口口 |①---|
①②③④ |②---|
口口口口 |③---|
口口口口 |④---|
49
口口①① |①---|
口口口口 |----|
口口②② |②---|
口口口口 |----|
50
口口口口 |①---|
口①①口 |----|
口②②口 |②---|
口口口口 |----|
51
口口口口 |①---|
口口口① |----|
口口口② |②---|
口口口口 |----|
52
口口口口 |①---|
口口口口 |----|
口口口口 |②---|
口口②① |----|
53
口口口口 |①---|
口口口口 |----|
口口口口 |②---|
②①口口 |----|
54
口口口口 |①---|
②口口口 |----|
①口口口 |②---|
口口口口 |----|
55
①②口口 |①---|
口口口口 |----|
口口口口 |②---|
口口口口 |----|
56
口口①② |①---|
口口口口 |----|
口口口口 |②---|
口口口口 |----|
57
口口口口 |①---|
口①①口 |----|
口②②口 |②---|
口口口口 |----|
58
口口口口 |①---|
口①①口 |----|
口②②口 |②---|
口口口口 |----|
59
口口口口 |①---|
口①①口 |----|
口②②口 |②---|
口口口口 |----|
60
口口口口 |①---|
①②②① |----|
口③③口 |②---|
口口口口 |③---|

accuracy: 99.5%
最終更新:2023年01月17日 11:19