アットウィキロゴ
ダンシング
佐伯ユウスケ

ADVANCED

Level: 5
BPM: 159
Notes: 368

1
口口口口 |----|
口口口口 |----|
口口口口 |----|
口口口口 |----|
2
口口口口 |①---|
①口口① |----|
口口口口 |----|
口口口口 |----|
3
口口口口 |①---|
口口口口 |----|
口口口口 |----|
口①①口 |----|
4
口口口口 |----|
口口口口 |----|
口口口口
口口口口
5
口口口口 |①---|
口口口① |②---|
口口②口 |③---|
口③口口 |----|
6
口口③③ |①---|
①口口口 |②---|
口②④④ |③---|
口口口口 |④---|
7
口口口口 |①---|
①口口口 |②---|
口②口口 |③---|
口口③口 |----|
8
③③口口 |①---|
①①②② |②---|
④④口口 |③---|
口口口口 |④---|
9
口口①口 |①---|
口②口口 |②---|
口口③口 |③---|
口④口口 |④---|
10
口②②口 |①--②|
⑤③③口 |-③-④|
①④④① |----|
口口口口 |⑤---|
11
③口①口 |①---|
口③口口 |②---|
②口口口 |③---|
口④口口 |④---|
12
口①口③ |①---|
口口③口 |②---|
口口口② |③---|
口口④口 |④---|
13
口口④口 |①---|
口③口① |②---|
口口③口 |③---|
口②口口 |④---|
14
口④⑤口 |①---|
①口③口 |②---|
口③口口 |③---|
口口②口 |④-⑤-|
15
口④③口 |----|
①①口口 |①---|
口口口口 |②---|
口口②② |③-④-|
16
口③口口 |----|
口口①① |①---|
口口口口 |②---|
②②口口 |③---|
17
④口口口 |①---|
口③②① |②---|
口③②① |③---|
口口口口 |④---|
18
口口①口 |①---|
口③③口 |②---|
②口口口 |③---|
口口口口 |----|
19
①口口口 |①---|
口口口② |②---|
口③口口 |③---|
口口口④ |④---|
20
口①口口 |①---|
①口②口 |②---|
口口口③ |③---|
口口④口 |④---|
21
口口①口 |①---|
口①口口 |②---|
①口③口 |③---|
口④口② |④---|
22
口口③③ |--①-|
①②口口 |②---|
①②④④ |③--④|
口口口口 |----|
23
口③口口 |--①-|
口口①口 |②---|
口②口④ |③--④|
口⑤口口 |--⑤-|
24
口口口口 |--①-|
③①③口 |②---|
口口②口 |③--④|
④口④口 |----|
25
口③口口 |--①-|
口口口① |②---|
④口②口 |③--④|
口口⑤口 |--⑤-|
26
④④口⑤ |①---|
②②③③ |②---|
口口①① |③---|
口口口口 |④-⑤-|
27
口口口口 |①--②|
④②口口 |--③-|
②口①③ |--④-|
口⑤口口 |--⑤-|
28
口②①口 |--①-|
口④③口 |②-③-|
口⑥⑤口 |④-⑤-|
口口⑦口 |⑥-⑦-|
29
⑥④④② |①-②-|
口口口口 |③---|
⑤⑤口③ |④--⑤|
口①口口 |--⑥-|
30
口口口口 |--①-|
⑤③③① |②---|
口口口口 |③--④|
④④口② |--⑤-|
31
③口②口 |①--②|
口口④② |--③-|
口口①口 |--④-|
口⑤口口 |--⑤-|
32
口口口口 |--①-|
口⑤⑥口 |②-③-|
①②③④ |④-⑤-|
口口口口 |⑥---|
33
①①口口 |①---|
口口口口 |②---|
口口口口
②②口口

⑤口⑤口
口口口③
口④口口 |③-④-|
口口口口 |--⑤-|
34
口口口口 |--①-|
③①口口 |②---|
口口④口 |③--④|
口②口口 |----|
35
口口①① |①---|
③⑤⑤口 |②---|
口口④口 |③-④-|
口口②② |--⑤-|
36
②口口① |--①-|
④口口③ |②-③-|
⑥口口⑤ |④-⑤-|
口口口⑦ |⑥-⑦-|
37
口①①口 |①---|
口口口口 |②---|
口口口口
口②②口

⑤口⑤口
③口口口
口口④口 |③-④-|
口口口口 |--⑤-|
38
口口口口 |--①-|
口③③① |②---|
口②口口 |③--④|
口④④口 |----|
39
口⑤口口 |--①-|
口口口⑥ |②-③-|
④③②① |④--⑤|
口口口口 |--⑥-|
40
②口口② |①---|
口口口口 |----|
口口口口 |②---|
口①①口 |----|
41
口口口口 |①---|
口①①口 |②---|
口②②口
口口口口

④口口④
口口口口
口⑤⑤口 |③---|
口③③口 |④--⑤|
42
口⑤⑤口 |①-②-|
④③②① |③-④-|
口口口口 |⑤---|
口⑥⑥口 |⑥---|
43
③口口① |①--②|
③口口① |--③-|
⑤②④口 |--④-|
口口口口 |--⑤-|
44
口口口口 |①-②-|
口①②口 |③-④-|
⑥⑦⑦③ |⑤-⑥-|
口⑤④口 |⑦---|
45
⑥②口① |--①-|
口④口③ |②-③-|
口口口口 |④--⑤|
口口⑤⑤ |--⑥-|
46
口口①口 |①-②-|
②口③口 |③-④-|
④口口口
口口口口

口⑥⑥口
口口口口
口口⑤口 |⑤---|
口口口口 |⑥---|
47
口口口口 |①--②|
⑤②④口 |--③-|
③口口① |--④-|
③口口① |--⑤-|
48
口⑤④口 |①-②-|
⑥⑦⑦③ |③-④-|
口①②口 |⑤-⑥-|
口口口口 |⑦---|
49
①③④① |①---|
口⑤口口 |②--③|
口口⑥口 |④-⑤-|
②⑦口② |⑥-⑦-|
50
口④③口 |①---|
②④③① |②---|
②口口① |③---|
口口口口 |④---|
51
④③口口 |①---|
③口②口 |②---|
口②口① |③---|
口口①口 |④---|
52
口口②① |①---|
口③口② |②---|
④口③口 |③---|
口④口口 |④---|
53
口⑥口⑤ |--①-|
④④①口 |②-③-|
口②口口 |④---|
口口③口 |⑤-⑥-|
54
④口④口 |①---|
口口③② |②-③-|
口口①口 |④---|
⑤口⑤口 |⑤---|
55
口口③④ |①---|
口②口③ |②---|
①口②口 |③---|
口①口口 |④---|
56
①②口口 |①---|
②口③口 |②---|
口③口④ |③---|
口口④口 |④---|
57
①①口口 |①---|
口口口口 |②---|
口口口口
②②口口

⑤口⑤口
口口口③
口④口口 |③-④-|
口口口口 |--⑤-|
58
口口口口 |--①-|
③①口口 |②---|
口口④口 |③--④|
口②口口 |----|
59
口口①① |①---|
③⑤⑤口 |②---|
口口④口 |③-④-|
口口②② |--⑤-|
60
②口口① |--①-|
④⑦⑦③ |②-③-|
⑥口口⑤ |④-⑤-|
口口口口 |⑥-⑦-|

accuracy: 99.5%
最終更新:2023年01月17日 11:20