アットウィキロゴ
ダンシング
佐伯ユウスケ

EXTREME

Level: 9.3
BPM: 159
Notes: 636

1
口口口口 |----|
口口口口 |----|
口口口口 |----|
口口口口 |----|
2
口口口① |①----②|
口①口② |----③-|
口②④③ |---④--|
口③④口 |----|
3
口口①口 |①----②|
①口②口 |-----③--|
②④③口 |---④--|
③④口口 |----|
4
口口口口 |①---|
口口口口 |----|
①口口①
口口口口
5
口口⑦⑦ |①-②-|
④⑤③口 |③---|
口②⑥⑥ |④⑤-⑥|
口口①口 |--⑦-|
6
①⑤⑦口 |①-②-|
⑤口④⑦ |③-④-|
⑥③口⑧ |⑤-⑥-|
口口②口 |⑦-⑧-|
7
⑦⑦口口 |①-②-|
口③⑤④ |③---|
⑥⑥②口 |④⑤-⑥|
口①口口 |--⑦-|
8
口口①① |①-②-|
③③⑤口 |③-④-|
口⑥口口 |⑤-⑥-|
⑦②④口 |⑦---|
9
⑦⑦口口 |①-②-|
口③⑤④ |③---|
⑥⑥②口 |④⑤-⑥|
口①口口 |--⑦-|
10
口⑥⑥口 |①②-③|
③③⑤⑤ |-④-⑤|
⑤⑤④④ |----|
口口②① |⑥---|
11
口口口① |①-②③|
⑤②口④ |④-⑤⑥|
口⑥③口
口口口口

⑦⑧⑨⑩
口口口口
口口口口 |⑦⑧⑨⑩|
口⑪口⑫ |⑪-⑫-|
12
⑤口口口 |①②③④|
口①②⑥ |⑤-⑥⑦|
口③④⑦
口口口口

口口⑨⑪
⑫⑩口口
口口口口 |⑧-⑨⑩|
⑧口⑧口 |⑪-⑫-|
13
③⑧⑦口 |①②③-|
口⑩⑨④ |④-⑤⑥|
⑤②①⑪ |-⑦⑧⑨|
口⑥⑫口 |⑩-⑪⑫|
14
④口⑪⑤ |①-②③|
①口⑥② |④-⑤⑥|
⑦口③⑪ |-⑦⑧⑨|
口⑩⑨⑧ |⑩-⑪-|
15
⑦⑧⑨口 |--①②|
①⑤③⑩ |③-④⑤|
④②⑥口 |⑥-⑦⑧|
口口⑩口 |⑨-⑩-|
16
口口口口 |--①②|
④②⑥口 |③-④⑤|
①⑤③口 |⑥-⑦⑧|
⑦⑧⑨口 |⑨---|
17
口③②① |①---|
④口⑤口 |②---|
口③②① |③--④|
口口⑦⑥ |-⑤⑥⑦|
18
口口②口 |①-②-|
④⑤口口 |③-④⑤|
口③口口
口①口口

口口⑦口
口口⑥⑦
口口口口 |⑥---|
口口口口 |--⑦-|
19
②口口口 |①--②|
口⑧⑥口 |-③④⑤|
⑦③④⑤ |-⑥-⑦|
①口⑨⑨ |⑧-⑨-|
20
口②⑤口 |①--②|
④口口口 |-③④⑤|
口①③口
口①口口

⑦口口口
口⑧口⑥
口口口口 |-⑥-⑦|
⑨⑨口口 |⑧-⑨-|
21
口口②口 |①--②|
口口①⑤ |-③④⑤|
口④①口
口口①③

口⑥口口
口⑨⑨口
⑦口口口 |-⑥-⑦|
口⑧口口 |⑧-⑨-|
22
②②②③ |--①-|
口口⑤⑤ |②---|
口③口① |③-④⑤|
④④①① |----|
23
⑤①①口 |①-②③|
口⑦⑥⑧ |④-⑤-|
②③④⑥ |⑥--⑦|
口⑧口⑦ |--⑧-|
24
口②口口 |--①-|
④④口口 |②-③-|
①口③口 |④--⑤|
口口⑤⑤ |----|
25
口③④④ |--①-|
⑤⑤口② |②-③-|
口①⑥⑥ |④--⑤|
口口口口 |--⑥-|
26
①口口② |①---|
口口①① |②---|
②②口口
口口口口

⑤口口口
③口口口
口口④④ |③---|
④④③③ |④-⑤-|
27
口⑤③口 |①--②|
④口③① |--③-|
④②⑥口 |--④-|
口口⑥口 |⑤-⑥-|
28
口口口⑤ |①-②-|
口④⑥① |③-④-|
口⑦口③ |⑤-⑥-|
⑧②口口 |⑦-⑧-|
29
①①②口 |①-②-|
⑦口⑥② |③---|
④⑤③口 |④⑤-⑥|
⑦口⑥③ |--⑦-|
30
①①②⑦ |①-②-|
口口⑥② |③---|
④⑤③口 |④⑤-⑥|
口口⑥③ |--⑦-|
31
口③⑤口 |①--②|
①③口④ |--③-|
口⑥②④ |--④-|
口⑥口口 |⑤-⑥-|
32
⑥口口口 |①-②③|
①⑥②⑦ |④-⑤-|
⑤⑧③⑦ |⑥-⑦-|
⑧口④口 |⑧---|
33
④④①① |①---|
⑦④①⑤ |②--③|
⑦④①③ |④-⑤-|
口②⑥口 |⑥-⑦-|
34
⑥⑥①⑤ |①-②③|
口口口口 |④-⑤-|
口④③② |⑥--⑦|
口口⑦⑦ |----|
35
口口口口 |①---|
口①口① |②--③|
②口①③
口①口口

④④⑦口
④口④⑦
口口口口 |④-⑤-|
⑥口⑤口 |⑥-⑦-|
36
口口口① |①-②③|
⑤⑥口口 |④-⑤⑥|
②③④口
口口口口

口⑧口口
口口⑦⑨
⑩口口⑨ |⑦-⑧-|
⑩口口口 |⑨-⑩-|
37
①口①口 |①---|
⑥④口⑤ |②--③|
口④③⑤ |④-⑤-|
⑦②⑦② |⑥-⑦-|
38
①④口② |①-②③|
⑥⑥③口 |④-⑤-|
口⑤口口 |⑥--⑦|
口口⑦⑦ |----|
39
④口口口 |①-②-|
口⑤口② |③-④⑤|
①口③①
口口口口

口口⑥口
口口口口
⑧口口⑧ |⑥--⑦|
口⑦⑦口 |--⑧-|
40
口①口① |①---|
①口①口 |----|
口②②口 |②---|
②口口② |----|
41
①口②口 |①---|
口口口① |②---|
口口口口
口口口②

④口⑤口
口口口口
口口口③ |③---|
③④口口 |④--⑤|
42
口④口③ |①-②-|
口①口① |③-④-|
②③②④
口口口口

口口口口
⑥⑥⑥⑥
口口口口 |⑤---|
口⑤⑤口 |⑥---|
43
①③①③ |①--②|
口口口口 |--③-|
①③①③
口口②②

口口口口
口口口口
口口口口 |--④-|
④④⑤⑤ |--⑤-|
44
口口⑦口 |①-②-|
⑤②③⑦ |③-④-|
①⑥⑥④ |⑤-⑥-|
⑤口口口 |⑦---|
45
口⑧⑧⑤ |①-②③|
④③②⑨ |④-⑤-|
⑥⑦口口 |⑥⑦-⑧|
口①①⑨ |--⑨-|
46
①⑤⑤④ |①-②-|
口②③口 |③-④-|
⑥⑥⑥⑥ |⑤---|
口口口口 |⑥---|
47
②②口口 |①--②|
③①③① |--③-|
口口口口
③①③①

⑤⑤④④
口口口口
口口口口 |--④-|
口口口口 |--⑤-|
48
口口口⑤ |①-②-|
④⑥⑥① |③-④-|
⑦③②⑤ |⑤-⑥-|
口⑦口口 |⑦---|
49
①①①口 |①---|
口口口③ |②--③|
口②口口
口口②口

口口⑥口
口口④口
口口口⑤ |④-⑤-|
口⑦口口 |⑥-⑦-|
50
①④③② |①---|
①①③③ |②---|
①①③③ |③---|
口④口② |④---|
51
①⑤③⑦ |①-②-|
①⑤③⑦ |③-④-|
④口口口 |⑤-⑥-|
⑧口⑥② |⑦-⑧-|
52
②⑥④⑧ |①-②-|
口口口口 |③-④-|
⑦③⑤① |⑤-⑥-|
⑦③⑤① |⑦-⑧-|
53
⑤口口口 |①-②③|
②③④口 |④-⑤-|
口口口口
口①口口

口口⑥口
⑧⑧口⑥
口⑦口口 |⑥--⑦|
口口⑦口 |--⑧-|
54
口口口口 |①---|
口口口② |②-③-|
口口③口
①①口口

口④④口
⑤口口口
⑦口口口 |④-⑤-|
口⑥⑥口 |⑥-⑦-|
55
⑦③⑤① |①-②-|
⑦③⑤① |③-④-|
口口口④ |⑤-⑥-|
②⑥口⑧ |⑦-⑧-|
56
口④口② |①-②-|
⑧口口⑥ |③-④-|
①⑤③⑦ |⑤-⑥-|
①⑤③⑦ |⑦-⑧-|
57
④④①① |①---|
⑦④①⑤ |②--③|
⑦④①③ |④-⑤-|
口②⑥口 |⑥-⑦-|
58
⑥⑥①⑤ |①-②③|
口口口口 |④-⑤-|
口④③② |⑥--⑦|
口口⑦⑦ |----|
59
口口口口 |①---|
口①口① |②--③|
②口①③
口①口口

④④⑦口
④口④⑦
口口口口 |④-⑤-|
⑥口⑤口 |⑥-⑦-|
60
⑤口口口 |①-②③|
口⑤口口 |④-⑤-|
②③④口
口①口口

口⑦⑦⑥
⑨口⑥⑧
⑨口口⑧ |⑥-⑦-|
口口口口 |⑧-⑨-|

accuracy: 99.5%
最終更新:2023年01月17日 11:21