アットウィキロゴ
デンノウス・キルズ
cosMo@暴走P feat.初音ミク

BASIC

Level: 3
BPM: 217
Notes: 182

1
口口口口 |----|
口口口口 |----|
口口口口 |----|
口口口口 |----|
2
口口口口 |①---|
口口口口 |----|
口口口口 |----|
口①口口 |----|
3
口口口口 |①---|
口口口口 |----|
口口①口 |----|
口口口口 |----|
4
口口口口 |①---|
口①口口 |----|
口口口口 |----|
口口口口 |----|
5
口口①口 |①---|
口口口口 |----|
口口口口 |----|
口口口口 |----|
6
①口口口 |①---|
口口口口 |----|
口口口口 |----|
口口口口 |----|
7
口口口口 |①---|
口口口① |----|
口口口口 |----|
口口口口 |----|
8
口口口口 |①---|
口口口口 |----|
①口口口 |----|
口口口口 |----|
9
口口口口 |①---|
口口口口 |----|
口口口口 |----|
口口口① |----|
10
口口口口 |①---|
口口口口 |----|
口②口口 |②---|
口①口口 |----|
11
口②口口 |①---|
口①口口 |----|
口口口口 |②---|
口口口口 |----|
12
口口①口 |①---|
口口②口 |----|
口口口口 |②---|
口口口口 |----|
13
口口口口 |①---|
口口口口 |----|
口口①口 |②---|
口口②口 |----|
14
口口口口 |①---|
口口口口 |----|
②口口口 |②---|
①口口口 |----|
15
②口口口 |①---|
①口口口 |----|
口口口口 |②---|
口口口口 |----|
16
口口口① |①---|
口口口② |----|
口口口口 |②---|
口口口口 |----|
17
口口口口 |①---|
口口口口 |----|
口口口① |②---|
口口口② |----|
18
口口口口 |①---|
口口②口 |----|
口①口口 |②---|
口口口口 |----|
19
①①②口 |①---|
口口口口 |----|
口口口口 |②---|
口口口口 |----|
20
口口口口 |①---|
口①口口 |----|
口口②口 |②---|
口口口口 |----|
21
口口口口 |①---|
口口口口 |----|
②口口口 |②---|
口①口口 |----|
22
①口口口 |①---|
口②口口 |----|
口口口口 |②---|
口口口口 |----|
23
口口口口 |①---|
口口口口 |----|
口②①口 |②---|
口口口口 |----|
24
口口口口 |①---|
口②①口 |----|
口口口口 |②---|
口口口口 |----|
25
口口口口 |①---|
口口口口 |----|
口口①口 |②---|
口②口口 |----|
26
口口口口 |①---|
口口口口 |----|
口口口① |----|
口口口口 |----|
27
口口①口 |①---|
口口口口 |----|
口口口口 |----|
口口口口 |----|
28
口口口口 |①---|
口口①口 |----|
口口口口 |----|
口口口口 |----|
29
口口口口 |①---|
口口口口 |----|
口口①口 |----|
口口口口 |----|
30
口口口口 |①---|
口口口口 |----|
②口口口 |②---|
口①口口 |----|
31
②口口口 |①---|
口①口口 |----|
口口口口 |②---|
口口口口 |----|
32
口口①口 |①---|
口②口口 |----|
口口口口 |②---|
口口口口 |----|
33
口口口口 |①---|
口口口口 |----|
口口①口 |----|
口口口口 |----|
34
口口口口 |①---|
口②②口 |----|
口口口口 |②---|
口①①口 |----|
35
②口口② |①---|
口口口口 |----|
①口口① |②---|
口口口口 |----|
36
口①①口 |①---|
口②②口 |----|
口口口口 |②---|
口口口口 |----|
37
口口口口 |①---|
口口口口 |----|
口①①口 |②---|
口②②口 |----|
38
口口口口 |①---|
口口口口 |----|
①①②② |②---|
口口口口 |----|
39
口口口口 |①---|
①①②② |----|
口口口口 |②---|
口口口口 |----|
40
①①②② |①---|
口口口口 |----|
口口口口 |②---|
口口口口 |----|
41
口口口口 |----|
口口口口 |----|
口口口口 |----|
口口口口 |----|
42
口口口口 |①---|
口②②口 |----|
口口口口 |②---|
口①①口 |----|
43
②口口② |①---|
口口口口 |----|
①口口① |②---|
口口口口 |----|
44
口①①口 |①---|
口②②口 |----|
口口口口 |②---|
口口口口 |----|
45
口口口口 |①---|
口口口口 |----|
口①①口 |②---|
口②②口 |----|
46
口口口口 |①---|
口口口口 |----|
①①②② |②---|
口口口口 |----|
47
口口口口 |①---|
①①②② |----|
口口口口 |②---|
口口口口 |----|
48
①①②② |①---|
口口口口 |----|
口口口口 |②---|
口口口口 |----|
49
口口口口 |①---|
口①①口 |----|
口口口口 |----|
口口口口 |----|
50
口口口口 |①---|
口口口口 |----|
口口口口 |----|
口①①口 |----|
51
口口口口 |①---|
口口口口 |----|
①口口① |----|
口口口口 |----|
52
口口口口 |①---|
①口口① |----|
口口口口 |----|
口口口口 |----|
53
①口口① |①---|
口口口口 |----|
口口口口 |----|
口口口口 |----|
54
口口口口 |①---|
口①口口 |----|
口口②口 |②---|
口口口口 |----|
55
口口口口 |①---|
口口②口 |----|
口①口口 |②---|
口口口口 |----|
56
口口②① |①---|
口口口口 |----|
口口口口 |②---|
口口口口 |----|
57
②①口口 |①---|
口口口口 |----|
口口口口 |②---|
口口口口 |----|
58
口口口口 |①---|
①口口口 |----|
口②口口 |②---|
口口口口 |----|
59
口口口口 |①---|
口口①口 |----|
口口口② |②---|
口口口口 |----|
60
口口口口 |①---|
口口口① |----|
口口②口 |②---|
口口口口 |----|
61
口口口口 |①---|
口①口口 |----|
②口口口 |②---|
口口口口 |----|
62
口口口口 |①---|
口口口口 |----|
口②口口 |②---|
口口①口 |----|
63
口②口口 |①---|
口口①口 |----|
口口口口 |②---|
口口口口 |----|
64
口口①口 |①---|
口②口口 |----|
口口口口 |②---|
口口口口 |----|
65
口口口口 |①---|
口口口口 |----|
口口①口 |②---|
口②口口 |----|
66
口口口口 |①---|
口口口口 |----|
②②①① |②---|
口口口口 |----|
67
口口口口 |①---|
②②①① |----|
口口口口 |②---|
口口口口 |----|
68
②②①① |①---|
口口口口 |----|
口口口口 |②---|
口口口口 |----|
69
口口口口 |①---|
口①①口 |----|
口口口口 |----|
口口口口 |----|
70
口口口口 |①---|
口口②口 |----|
①①口口 |②---|
口口口口 |----|
71
口口①① |①---|
口②口口 |----|
口口口口 |②---|
口口口口 |----|
72
口口口口 |①---|
口口口口 |----|
口口①① |②---|
②②口口 |----|
73
口口口口 |①---|
口口口口 |----|
②②口口 |②---|
口口①① |----|
74
口口①口 |①---|
口口口口 |----|
口口口口 |----|
口口口口 |----|
75
口口口口 |①---|
口①口口 |----|
口口口口 |----|
口口口口 |----|
76
口口口口 |①---|
口口口口 |----|
口口①口 |----|
口口口口 |----|
77
口口口口 |①---|
口口口口 |----|
口口口口 |----|
口①口口 |----|
78
口口口口 |①---|
口口口口 |----|
口口口口 |----|
口口①口 |----|
79
口口口口 |①---|
口口口口 |----|
口①口口 |----|
口口口口 |----|
80
口口口口 |①---|
口口①口 |----|
口口口口 |----|
口口口口 |----|
81
口①口口 |①---|
口口口口 |----|
口口口口 |----|
口口口口 |----|
82
口口口口 |①---|
①口口① |----|
口口口口 |----|
口口口口 |----|
83
口口口口 |----|
口口口口 |----|
口口口口 |----|
口口口口 |----|
84
口口口口 |①---|
口口口口 |----|
口①①口 |----|
口口口口 |----|

accuracy: 99.5%
最終更新:2023年01月17日 10:22