アットウィキロゴ
デンノウス・キルズ
cosMo@暴走P feat.初音ミク

ADVANCED

Level: 7
BPM: 217
Notes: 430

1
口口口口 |----|
口口口口 |----|
口口口口 |----|
口口口口 |----|
2
口口口口 |①---|
口口③② |②-③-|
口口口口 |----|
①④口口 |④---|
3
口⑤⑥口 |①-②-|
口③④口 |----|
口口②① |③-④-|
口口口口 |⑤-⑥-|
4
①口口口 |①---|
口口口口 |②-③-|
口口③② |----|
④口口口 |④---|
5
口①口口 |①---|
口口口口 |----|
口②③口 |②-③-|
口④⑤口 |④-⑤-|
6
口口口口 |①---|
口口③② |②-③-|
④口口口 |----|
①口口口 |④---|
7
口③④口 |①-②-|
口⑤⑥口 |----|
口口②① |③-④-|
口口口口 |⑤-⑥-|
8
①口口口 |①---|
口口口口 |②-③-|
口口③② |----|
④口口口 |④---|
9
口①口口 |①---|
⑤④③② |----|
口口口口 |②-③-|
口口口口 |④-⑤-|
10
⑥口⑦⑤ |①-②-|
口口口口 |③-④-|
口②①口 |⑤-⑥-|
口④③口 |--⑦-|
11
口口口口 |①-②-|
口①③口 |--③-|
⑥口②⑦ |④-⑤-|
④口口⑤ |⑥-⑦-|
12
③口口口 |①-②-|
①口④② |③-④-|
口⑤⑥口 |⑤-⑥-|
口口口口 |----|
13
口口②① |----|
口口口口 |①-②-|
口口口口 |----|
③④口口 |③-④-|
14
口④③口 |--①-|
口②⑤口 |②-③-|
口⑥①⑦ |④-⑤-|
口口口口 |⑥-⑦-|
15
口口口② |①-②-|
①③口口 |--③-|
⑥口④口 |④-⑤-|
口⑤口口 |--⑥-|
16
口①④口 |①--②|
口⑥口口 |--③-|
口②⑤③ |④--⑤|
口口口口 |--⑥-|
17
⑤口口⑤ |①---|
④口①④ |②-③-|
③口口③ |--④-|
口②口口 |--⑤-|
18
口②①口 |----|
口口口③ |①---|
③口口口 |②---|
口①②口 |③---|
19
口口口口 |①---|
①口口口 |----|
口③口① |②---|
②口口口 |③---|
20
②口口④ |①---|
口口①口 |--②-|
口口口口 |③---|
口口口③ |--④-|
21
口口口口 |①---|
口②口口 |--②-|
口口③口 |③---|
①口口口 |----|
22
口①①口 |①---|
口口口口 |----|
③口口③ |②---|
②口口② |③---|
23
口②②口 |①---|
①口口① |----|
口口口口 |②---|
口③③口 |③---|
24
②口口口 |①---|
⑤①①③ |②-③-|
口①①口 |--④-|
④口口口 |--⑤-|
25
口口口口 |----|
口口①口 |--①-|
口②口口 |②---|
口口口口 |----|
26
口口口口 |----|
口口口③ |①---|
口口口② |②---|
口口口① |③---|
27
口口口① |①---|
口口③口 |----|
口②口口 |②---|
口口口口 |③---|
28
①①口口 |①---|
口口口口 |--②-|
口口②口 |③---|
口③口口 |----|
29
口口口口 |----|
口口口口 |----|
口口口口 |----|
①①口口 |①---|
30
口口①① |①---|
口②④口 |--②-|
口口③口 |③---|
口口口口 |--④-|
31
②口口口 |①---|
口口口口 |--②-|
口①③口 |----|
口口③口 |--③-|
32
口口②口 |--①-|
③口⑥口 |②-③-|
口⑦口④ |④-⑤-|
①⑤口口 |⑥-⑦-|
33
口③②① |----|
口口④④ |①---|
口口口口 |②---|
口口口口 |③-④-|
34
口⑥口④ |①-②-|
口③口口 |③-④-|
①①口⑤ |--⑤-|
口口②② |--⑥-|
35
⑤口口⑤ |①---|
口口①① |②-③-|
②④④口 |--④-|
口口③③ |⑤---|
36
口口①③ |----|
②口口口 |①---|
口口口② |②---|
③①口口 |③---|
37
③口④口 |①---|
口①②口 |②---|
口②①口 |③---|
口④口③ |④---|
38
口口口口 |----|
①②③口 |①---|
①②③口 |②---|
口口口口 |③---|
39
④③③④ |①---|
口口口① |②---|
口口口① |③---|
口②②口 |④---|
40
口口口口 |----|
口②①口 |①---|
口①②口 |②---|
口口口口 |----|
41
口口口口 |----|
口口口① |----|
口口口口 |----|
口口口口 |--①-|
42
口⑤口⑥ |①---|
口口④口 |②-③-|
口③口口 |④-⑤-|
①①②口 |--⑥-|
43
口⑤⑤口 |①---|
①①口口 |②-③-|
口④④② |--④-|
③③口口 |⑤---|
44
②口口① |----|
口口③口 |①---|
①口口② |②---|
口③口口 |③---|
45
口①④② |①---|
口③口口 |②---|
口口③口 |③---|
②④①口 |④---|
46
口④口③ |----|
①口口口 |①-②-|
口②口口 |--③-|
口口口口 |--④-|
47
口口口口 |--①-|
口③口口 |②---|
口口④① |----|
口口②口 |③-④-|
48
口口口② |①---|
③口口口 |----|
口口口④ |②-③-|
⑤①口口 |④-⑤-|
49
口①①口 |----|
口口口口 |----|
口口口口 |----|
口口口口 |①---|
50
口口口口 |①---|
口③③口 |--②-|
口②②口 |----|
口①①口 |③---|
51
①口口① |①---|
②口口② |②---|
③口口③ |③---|
④口口④ |④---|
52
口口口③ |----|
口②①口 |①---|
口①②口 |②---|
③口口口 |③---|
53
①①口口 |①---|
口③口口 |②---|
口口④口 |③-④-|
口口②② |----|
54
口口口① |①---|
口口口③ |②---|
④口口口 |③---|
②口口口 |④---|
55
④④口口 |①---|
②口口口 |②---|
口口口① |③---|
口口口③ |④---|
56
口口口口 |----|
口②①口 |①---|
口口③口 |②---|
口口口口 |③---|
57
③①口口 |①---|
口口口口 |②---|
口口口口 |③---|
口口②④ |④---|
58
口口口口 |①---|
①口口④ |②---|
③口口② |③---|
口口口口 |④---|
59
口口口② |①---|
口口④口 |②---|
口③口口 |③---|
①口口口 |④---|
60
②②④④ |①---|
口①口口 |②---|
口口③口 |③---|
口口口口 |④---|
61
口口口口 |①---|
②②④④ |②---|
口口口口 |③---|
口①③口 |④---|
62
口口口② |①---|
口口口④ |②---|
③口口口 |③---|
①口口口 |④---|
63
③口口口 |①---|
①口口口 |②---|
口口口② |③---|
口口④④ |④---|
64
口口口口 |----|
口①②口 |①---|
口③口口 |②---|
口口口口 |③---|
65
口口①③ |①---|
口口口口 |②---|
口口口口 |③---|
④②口口 |④---|
66
口②口口 |①---|
口口③① |②-③-|
口④⑦口 |④-⑤-|
口⑥⑤口 |⑥-⑦-|
67
口口①① |----|
②口口口 |①---|
口口口③ |----|
口口口口 |②-③-|
68
②②口口 |①---|
口口③③ |----|
④④口口 |②-③-|
①口⑤⑤ |④-⑤-|
69
口口口口 |----|
口①口口 |①---|
口口②口 |②---|
口③口口 |③---|
70
①口①口 |①---|
口②口② |--②-|
③口③口 |----|
口口口口 |③---|
71
口①口① |①---|
②口②口 |--②-|
口③口③ |----|
口口口口 |③---|
72
①口①口 |①---|
口口口口 |----|
口口口口 |②---|
口②口② |----|
73
③口口④ |①---|
口①①口 |②---|
口①①口 |③-④-|
口口②口 |----|
74
口口口口 |①---|
口口③② |②-③-|
口口口口 |----|
①④口口 |④---|
75
口⑤⑥口 |①-②-|
口③④口 |----|
口口②① |③-④-|
口口口口 |⑤-⑥-|
76
①口口口 |①---|
口口口口 |②-③-|
口口③② |----|
④口口口 |④---|
77
口①口口 |①---|
口口口口 |----|
口②③口 |②-③-|
口④⑤口 |④-⑤-|
78
口口口口 |①---|
口口③② |②-③-|
④口口口 |----|
①口口口 |④---|
79
口③④口 |①-②-|
口⑤⑥口 |----|
口口②① |③-④-|
口口口口 |⑤-⑥-|
80
①口口口 |①---|
口口口口 |②-③-|
口口③② |----|
④口口口 |④---|
81
口①②口 |①---|
口③口口 |----|
口口④口 |②-③-|
口⑤口口 |④-⑤-|
82
④口口口 |①---|
口口口③ |②---|
②口口口 |③---|
口口口① |④---|
83
口口①口 |①---|
口②口口 |②---|
口口③口 |③---|
口④口口 |④---|
84
口口口口 |①--②|
②口口① |----|
②口口① |----|
口口口口 |----|

accuracy: 99.5%
最終更新:2023年01月17日 10:22