アットウィキロゴ
デンノウス・キルズ
cosMo@暴走P feat.初音ミク

EXTREME

Level: 9.1
BPM: 217
Notes: 606

1
口口口口 |----|
口口口口 |----|
口口口口 |----|
口口口口 |----|
2
口口口② |①---|
口口口口 |②-③-|
口口③口 |----|
①口口④ |④---|
3
①④口口 |①-②-|
口口⑤口 |--③-|
⑥②口口 |④-⑤-|
口③口⑦ |⑥-⑦-|
4
②口①① |①---|
口口口口 |②-③-|
口③⑥口 |--④-|
口⑤④口 |⑤-⑥-|
5
⑥①口口 |①---|
②③④⑤ |----|
口口口口 |②③④⑤|
口口口口 |⑥---|
6
口口口② |①---|
口口口口 |②-③-|
口口③口 |----|
①口口④ |④---|
7
①④口口 |①-②-|
口口⑤口 |--③-|
⑥②口口 |④-⑤-|
口③口⑦ |⑥-⑦-|
8
②口①① |①---|
口口口口 |②-③-|
口③⑥口 |--④-|
口⑤④口 |⑤-⑥-|
9
口①口口 |①---|
②③④⑤ |----|
⑥⑦⑧⑨ |②③④⑤|
口口口口 |⑥⑦⑧⑨|
10
①口③⑥ |①-②-|
⑦口口口 |③-④-|
口口口口 |⑤-⑥-|
⑤②口④ |--⑦-|
11
口④口⑤ |①-②-|
口④④⑦ |--③-|
③④④① |④-⑤-|
口⑥②口 |⑥-⑦-|
12
①口③口 |①-②-|
②口⑥口 |③-④-|
口口口口 |⑤-⑥-|
⑤口口④ |----|
13
口口口口 |----|
①①④④ |①-②-|
②②③③ |----|
口口口口 |③-④-|
14
①②③口 |--①-|
口⑤口口 |②-③-|
口⑦口口 |④-⑤-|
④口⑥口 |⑥-⑦-|
15
口口口② |①-②-|
⑤⑥④口 |--③-|
口口①口 |④-⑤-|
口口口③ |--⑥-|
16
①①④④ |①--②|
口口口口 |--③-|
②②⑤⑤ |④--⑤|
③③⑥⑥ |--⑥-|
17
⑥口⑤⑥ |①-②-|
①④②① |③-④-|
口③⑤口 |--⑤-|
口④口口 |--⑥-|
18
口口口口 |----|
①口口② |①---|
①口口② |②---|
口③③口 |③---|
19
口①①口 |①---|
口③④口 |②---|
口④③口 |③---|
②口口口 |④---|
20
①③⑥① |①---|
口口口口 |②-③-|
口口口口 |④---|
⑤口④② |⑤-⑥-|
21
口④口④ |①---|
口①口⑤ |②-③-|
①③①口 |④---|
口口口② |⑤---|
22
②口③口 |①---|
口③③口 |②---|
口④④口 |③---|
①④①口 |④---|
23
④④口① |①---|
口口口口 |②---|
口口口口 |③---|
②口③③ |④---|
24
口口①④ |①---|
②①①口 |②-③-|
口①①③ |--④-|
口①⑤⑤ |--⑤-|
25
口口口口 |----|
口①口口 |--①-|
口口②口 |②---|
口口口口 |----|
26
口口口口 |①---|
口口口④ |②---|
口口③口 |③---|
①①口② |④---|
27
口口①口 |①---|
口②口口 |----|
③口口口 |②---|
口口口口 |③---|
28
口①口口 |①---|
口口①口 |--②-|
口口口口 |③---|
口②③口 |----|
29
①④⑤口 |①---|
口⑥⑦③ |②-③-|
口⑧⑨口 |④⑤⑥⑦|
②⑩⑪口 |⑧⑨⑩⑪|
30
①⑥④④ |①---|
①口口口 |②-③-|
口口⑤③ |④---|
②口口口 |⑤-⑥-|
31
口⑥口⑤ |①---|
①⑥②口 |②-③-|
①⑥口口 |④---|
④⑥③③ |⑤-⑥-|
32
④口口口 |--①-|
口口⑤③ |②-③-|
②口口① |④-⑤-|
⑥口⑦口 |⑥-⑦-|
33
口①②③ |----|
口口口口 |①---|
口口口口 |②---|
④口口口 |③-④-|
34
④口口口 |①-②-|
口①①口 |③-④-|
③①①② |--⑤-|
口口⑤⑥ |--⑥-|
35
口⑤⑤③ |①---|
⑤①①⑤ |②-③-|
口①①② |--④-|
口④口口 |⑤---|
36
①口口口 |----|
口①②口 |①---|
口③口② |②---|
③口口口 |③---|
37
④口④口 |①---|
口③口③ |②---|
②口②口 |③---|
口①口① |④---|
38
口④口② |①---|
口口③口 |②---|
口④口② |③---|
①口③口 |④---|
39
③④③④ |①---|
①口口口 |②---|
口口口口 |③---|
①②口② |④---|
40
口⑥⑥⑥ |①-②-|
③③③口 |③---|
①口口④ |④-⑤-|
②口口⑤ |⑥---|
41
⑧口口⑨ |①-②③|
口④③② |④-⑤-|
口⑥⑦口 |⑥-⑦-|
口①⑤口 |⑧-⑨-|
42
⑦口⑤口 |①---|
口④⑥② |②-③-|
①口口① |④-⑤-|
①口③① |⑥-⑦-|
43
口⑤⑤口 |①---|
②⑤⑤口 |②-③-|
①口③① |--④-|
①④口① |⑤---|
44
①口口口 |----|
①口口② |①---|
口③口② |②---|
口③口口 |③---|
45
④④④④ |①---|
②③②③ |②---|
③口①口 |③---|
①口②① |④---|
46
④④口口 |----|
口口口③ |①-②-|
口口口口 |--③-|
②口口① |--④-|
47
口口①口 |--①-|
③口口口 |②---|
口口口④ |----|
口②口口 |③-④-|
48
口③②口 |①---|
口口口口 |----|
口口口口 |②-③-|
①⑤④口 |④-⑤-|
49
口⑨⑧① |①-②③|
②③④口 |④-⑤-|
口⑦⑥口 |⑥-⑦-|
⑤口口口 |⑧-⑨-|
50
口口口③ |①---|
口口口口 |--②-|
口口口② |----|
口口口① |③---|
51
①口口口 |①---|
口口②口 |②---|
口③口口 |③---|
口口口④ |④---|
52
口②口口 |①---|
口口③② |②---|
③④口口 |③---|
①口口④ |④---|
53
①⑤口① |①---|
口③④口 |②---|
③口口④ |③-④-|
口②②口 |⑤---|
54
②口①口 |①---|
④⑤口① |②-③-|
⑥⑦口口 |④-⑤-|
口口口③ |⑥-⑦-|
55
⑤⑥②① |①-②-|
口口④③ |③-④-|
⑦口口口 |⑤-⑥-|
⑦口口口 |⑦---|
56
口口口口 |----|
口口③② |①---|
口口⑤④ |②-③-|
口口口① |④-⑤-|
57
口口口口 |①-②-|
口口口口 |③-④-|
③④⑧⑦ |⑤-⑥-|
①②⑥⑤ |⑦-⑧-|
58
①口口② |①-②-|
③口口④ |③-④-|
⑦口口⑧ |⑤-⑥-|
⑤口口⑥ |⑦-⑧-|
59
口①②口 |①-②-|
口③④口 |③-④-|
口⑦⑧口 |⑤-⑥-|
口⑤⑥口 |⑦-⑧-|
60
口③③口 |①-②-|
④口口⑤ |③---|
口口口口 |④-⑤-|
①⑥⑥② |⑥---|
61
③口口③ |①-②-|
口④⑤口 |③---|
口①②口 |④-⑤-|
⑥口口⑥ |⑥---|
62
②口①口 |①---|
④⑤口① |②-③-|
⑥⑦③口 |④-⑤-|
口口口口 |⑥-⑦-|
63
⑤⑥②① |①-②-|
口口④③ |③-④-|
⑦口口口 |⑤-⑥-|
⑦口口口 |⑦---|
64
口口口口 |----|
口口③② |①---|
口口⑤④ |②-③-|
口口口① |④-⑤-|
65
⑩⑥⑤⑨ |①-②-|
⑫⑧⑦⑪ |③-④-|
③④口口 |⑤⑥⑦⑧|
①②口口 |⑨⑩⑪⑫|
66
⑥④⑤⑦ |①---|
口⑥⑦口 |②-③-|
口口③口 |④-⑤-|
②口口① |⑥-⑦-|
67
口②口口 |----|
②口③口 |①---|
口③口口 |----|
口①口① |②-③-|
68
②口③⑤ |①---|
口⑥口③ |②---|
④口⑤① |③-④-|
⑥④①口 |⑤-⑥-|
69
口①口口 |①-②-|
⑤口②口 |③-④-|
口③口⑥ |⑤-⑥-|
口⑦④口 |⑦---|
70
⑤①⑤① |①---|
口③口③ |②-③-|
④口口口 |④---|
②口口口 |⑤---|
71
口③口③ |①---|
①⑤①⑤ |②-③-|
口口②口 |④---|
④口口口 |⑤---|
72
①③①③ |①---|
口口口口 |②---|
②口口口 |③---|
口口口④ |④---|
73
①⑤①口 |①---|
③①口① |②---|
口口口④ |③-④-|
口②②口 |⑤---|
74
口口口② |①---|
口口口口 |②-③-|
口口③口 |----|
①口口④ |④---|
75
①④口口 |①-②-|
口口⑤口 |--③-|
⑥②口口 |④-⑤-|
口③口⑦ |⑥-⑦-|
76
②口①① |①---|
口口口口 |②-③-|
口③⑥口 |--④-|
口⑤④口 |⑤-⑥-|
77
⑥①口口 |①---|
②③④⑤ |----|
口口口口 |②③④⑤|
口口口口 |⑥---|
78
口口口② |①---|
口口口口 |②-③-|
口口③口 |----|
①口口④ |④---|
79
①④口口 |①-②-|
口口⑤口 |--③-|
⑥②口口 |④-⑤-|
口③口⑦ |⑥-⑦-|
80
②口①① |①---|
口口口口 |②-③-|
口③⑥口 |--④-|
口⑤④口 |⑤-⑥-|
81
口①口口 |①---|
②③④⑤ |----|
⑥⑦⑧⑨ |②③④⑤|
口口口口 |⑥⑦⑧⑨|
82
①口口④ |①---|
口口口口 |②---|
口口口口 |③---|
②口口③ |④---|
83
①口口口 |①---|
⑧⑦口口 |②---|
口⑥⑤口 |③-④-⑤-|
②口④③ |⑥-⑦-⑧-|
84
口口①口 |①--②|
口口口① |----|
②口口口 |----|
口②口口 |----|

accuracy: 99.5%
最終更新:2023年01月17日 10:23