アットウィキロゴ
ドラマツルギー
Eve

BASIC

Level: 2
BPM: 149
Notes: 140

1
口口口口 |----|
口口口口 |----|
口口口口 |----|
口口口口 |----|
2
口口口口 |①---|
口口口① |----|
口口口口 |----|
口口口口 |----|
3
口口口口 |①---|
口口口口 |----|
口口①口 |----|
口口口口 |----|
4
口口口口 |①---|
口口①口 |----|
口口口口 |----|
口口口口 |----|
5
口口口口 |①---|
口口口口 |----|
口①口口 |----|
口口口口 |----|
6
口口口口 |①---|
口①口口 |----|
口口口口 |----|
口口口口 |----|
7
口口口口 |①---|
口口口口 |----|
①口口口 |----|
口口口口 |----|
8
口口口口 |①---|
①②②口 |----|
口口口口 |----|
口口口口 |--②-|
9
口口口口 |----|
口口口口 |----|
口①①口 |①---|
口口口口 |----|
10
口口口口 |①---|
口口口① |----|
口口口② |②---|
口口口口 |----|
11
口口口口 |①---|
口口口口 |----|
口口口口 |②---|
口口②① |----|
12
口口口口 |①---|
口口①口 |----|
口口②口 |②---|
口口口口 |----|
13
口口口口 |①---|
口口口口 |----|
口口口口 |②---|
口②①口 |----|
14
口口口口 |①---|
口①口口 |----|
口②口口 |②---|
口口口口 |----|
15
口口口口 |①---|
口口口口 |----|
口口口口 |②---|
②①口口 |----|
16
口口口口 |①---|
口①①口 |----|
口②②口 |②---|
口口口口 |----|
17
口口口口 |①---|
口口口口 |----|
口口口口 |----|
口①①口 |----|
18
口口口口 |①---|
口口口口 |----|
口口②① |②---|
口口口口 |----|
19
口口口口 |①---|
口口口口 |----|
②①口口 |②---|
口口口口 |----|
20
口口口口 |①---|
①②口口 |----|
口口口口 |②---|
口口口口 |----|
21
口口口口 |①---|
口口①② |----|
口口口口 |②---|
口口口口 |----|
22
口口②① |①---|
口口口口 |----|
口口口口 |②---|
口口口口 |----|
23
②①口口 |①---|
口口口口 |----|
口口口口 |②---|
口口口口 |----|
24
口口口口 |①---|
①口口口 |----|
②口口口 |②---|
口口口口 |----|
25
口口口口 |①---|
口①①口 |----|
口口口口 |----|
口口口口 |----|
26
口口口口 |①---|
口口口口 |----|
①②口口 |②---|
口口口口 |----|
27
口口口口 |①---|
口口口口 |----|
口口①② |②---|
口口口口 |----|
28
口口口口 |①---|
口口②① |----|
口口口口 |②---|
口口口口 |----|
29
口口口口 |①---|
②①口口 |----|
口口口口 |②---|
口口口口 |----|
30
①②口口 |①---|
口口口口 |----|
口口口口 |②---|
口口口口 |----|
31
口口①② |①---|
口口口口 |----|
口口口口 |②---|
口口口口 |----|
32
口①①口 |①---|
口②②口 |----|
口口口口 |②---|
口口口口 |----|
33
口口口口 |①---|
口口口口 |----|
口①①口 |②---|
口②②口 |----|
34
口口口口 |①---|
口口口口 |----|
②②①① |②---|
口口口口 |----|
35
口口口口 |①---|
②②①① |----|
口口口口 |②---|
口口口口 |----|
36
口口口口 |①---|
口口口口 |----|
口口②① |②---|
口口口口 |----|
37
口口①口 |①---|
口②口口 |②---|
口口③口 |③---|
口④口口 |④---|
38
口口口口 |①---|
口①①口 |----|
口口口口 |----|
口口口口 |----|
39
口口口口 |----|
①口口① |----|
口口口口 |①---|
口口口口 |----|
40
口口①口 |①---|
口口②口 |②---|
口口③口 |③---|
口口口口 |----|
41
口口口口 |①---|
①②③口 |②---|
口口口口 |③---|
口口口口 |----|
42
口口口口 |①---|
口③口口 |②---|
口②口口 |③---|
口①口口 |----|
43
口口口口 |①---|
口口口口 |②---|
④③②① |③---|
口口口口 |④---|
44
口口口口 |①---|
①口②口 |----|
口口口口 |②---|
口口口口 |----|
45
口口口口 |①---|
口①口口 |----|
口口②口 |②---|
口口口口 |----|
46
口口口口 |①---|
①①②② |----|
口口口口 |②---|
口口口口 |----|
47
口口①口 |①---|
口②口口 |②---|
口口③口 |③---|
口口口口 |----|
48
口①口口 |①---|
口②口口 |②---|
口③口口 |③---|
口口口口 |----|
49
口口口口 |①---|
口③②① |②---|
口口口口 |③---|
口口口口 |----|
50
口口口口 |①---|
口口③口 |②---|
口口②口 |③---|
口口①口 |----|
51
口口口口 |①---|
口口口口 |②---|
①②③④ |③---|
口口口口 |④---|
52
口口口口 |①---|
口②口① |----|
口口口口 |②---|
口口口口 |----|
53
口口口口 |①---|
口口①口 |----|
口②口口 |②---|
口口口口 |----|
54
口口口口 |①---|
口①①口 |----|
口②②口 |②---|
口口口口 |----|
55
口口口口 |①---|
①口口① |②---|
②口口② |③---|
③口口③ |----|
56
口口口口 |①---|
口口口口 |----|
口①①口 |----|
口口口口 |----|
57
口口口口 |①---|
口①①口 |----|
口②②口 |②---|
口口口口 |----|

accuracy: 99.5%
最終更新:2023年01月17日 10:24