アットウィキロゴ
ドラマツルギー
Eve

ADVANCED

Level: 6
BPM: 149
Notes: 385

1
口口口口 |----|
口口口口 |----|
口口口口 |----|
口口口口 |----|
2
口口口口 |①---|
口口口② |----|
①口②口 |②---|
口①口口 |----|
3
①口口口 |①---|
口①口口 |----|
口口口口 |----|
口口口口 |----|
4
口口口口 |①---|
②口口口 |----|
口②口① |②---|
口口①口 |----|
5
口口口① |①---|
口口①口 |----|
口口口口 |----|
口口口口 |----|
6
口口口口 |①---|
口口口② |----|
①口②口 |②---|
口①口口 |----|
7
①口口口 |①---|
口①口口 |----|
口口口口 |----|
口口口口 |----|
8
口③③口 |①---|
②口口口 |----|
口②口① |②---|
口口①口 |--③-|
9
②口口② |----|
口③③口 |①---|
①口口① |②---|
口口口口 |③---|
10
③口①口 |①---|
口口口口 |②---|
④口②口 |③---|
口口口口 |④---|
11
口口⑤⑤ |①--②|
口①口口 |--③-|
口口④② |--④-|
口③口口 |⑤---|
12
口①口③ |①---|
口口口口 |②---|
口②口④ |③---|
口口口口 |④---|
13
⑤⑤口口 |①--②|
口口①口 |--③-|
②④口口 |--④-|
口口③口 |⑤---|
14
口口口口 |①---|
口③口① |②---|
口口口口 |③---|
口④口② |④---|
15
口口①⑤ |①--②|
②④口⑤ |--③-|
口口③口 |--④-|
口口口口 |⑤---|
16
口口口口 |①---|
①口③口 |②---|
口口口口 |③---|
②口④口 |④---|
17
⑤①口⑥ |①--②|
⑤口④② |--③-|
口③口口 |--④-|
口口口口 |⑤-⑥-|
18
口①口口 |①-②-|
口③口② |③-④-|
口口口④
口口口口

⑦⑥口⑥
口口口口
⑤⑤口口 |⑤--⑥|
口口口口 |--⑦-|
19
口口①口 |①-②-|
②口③口 |③-④-|
④口口口
口口口口

⑥口⑥⑦
口口口口
口口⑤⑤ |⑤--⑥|
口口口口 |--⑦-|
20
⑦①口⑥ |①-②-|
口③口② |③-④-|
⑤⑤⑥④ |⑤--⑥|
口口口口 |--⑦-|
21
口口①口 |①-②-|
②口③口 |③-④-|
④口口口
口口口口

⑥⑦⑦口
口口口口
口⑥⑤⑤ |⑤--⑥|
口口口口 |--⑦-|
22
口口口口 |--①-|
口⑥⑤口 |②-③-|
①口口④ |④-⑤-|
口②③口 |⑥---|
23
口口口① |①-②-|
口口口② |③-④-|
口④③口
口口口口

⑥⑦口⑧
⑤口口⑧
口口口口 |⑤-⑥-|
口口口口 |⑦-⑧-|
24
④口口④ |--①-|
③口①口 |--②-|
③②①口 |--③-|
口②口口 |--④-|
25
口口口口 |----|
口口③口 |----|
口口口口 |①---|
②口口① |②-③-|
26
口口口口 |①-②-|
口①口口 |③-④-|
口③②口
口口④口

口口⑥口
⑤⑦口口
⑤口口口 |⑤--⑥|
口口口口 |--⑦-|
27
口口口口 |①-②-|
口口①口 |③-④-|
口②③口
口④口口

口⑥口口
口口⑦⑤
口口口⑤ |⑤--⑥|
口口口口 |--⑦-|
28
口口口口 |①-②-|
口①口口 |③-④-|
口③②口
口口④口

口口口⑥
⑤⑦口⑥
⑤口口口 |⑤--⑥|
口口口口 |--⑦-|
29
口口口口 |①-②-|
口口①口 |③-④-|
口②③口
口④口口

⑥口⑦口
⑥口⑦⑤
口口口⑤ |⑤--⑥|
口口口口 |--⑦-|
30
口⑤⑤口 |--①-|
口口口⑥ |②-③-|
①②③④ |④---|
口口口口 |⑤-⑥-|
31
口口⑥口 |①-②-|
③②①⑥ |③---|
口⑤⑤口 |④-⑤-|
口④④口 |--⑥-|
32
④①口④ |--①-|
①⑤⑤口 |--②-|
口③②口 |③---|
口口口口 |④-⑤-|
33
口⑤口⑤ |--①-|
①口口① |②-③-|
②口口② |④---|
③④④③ |--⑤-|
34
⑥口⑥口 |①--②|
②口④口 |--③-|
口口①口 |④--⑤|
口③③⑤ |--⑥-|
35
口口口口 |①--②|
口④口② |--③-|
口①口口 |④--⑤|
⑤③③口 |----|
36
口④③口 |①---|
②⑥⑤② |②---|
①口口① |③-④-|
口口口口 |⑤-⑥-|
37
口口口口 |①-②-|
口口口口 |③-④-|
⑧②①⑦ |⑤-⑥-|
⑥④③⑤ |⑦-⑧-|
38
口①①口 |①---|
口④③② |②---|
口口口口 |③---|
口口口口 |④---|
39
口②②口 |①---|
①口口③ |②-③-|
口口口口
口口口口

口口口口
⑥口口口
⑦口④口 |④-⑤-|
口⑤口口 |⑥-⑦-|
40
②②①① |①---|
口口口口 |②--③|
口口③口
口口口口

口口⑤口
口口口口
⑥口口口 |④--⑤|
口④口口 |--⑥-|
41
⑥⑥口口 |--①-|
口①④⑤ |②-③-|
⑦⑦②口 |④⑤-⑥|
口口口③ |--⑦-|
42
⑤⑤①口 |①---|
口①③④ |②--③|
⑥⑥②口 |④--⑤|
口②口口 |--⑥-|
43
口口①口 |--①-|
口②口口 |②-③-|
口口③口
口口口口

口⑥⑥口
口口口⑤
口口口⑤ |④--⑤|
口④口口 |--⑥-|
44
口⑤口口 |①---|
⑤①①口 |--②-|
②口④口 |③-④-|
口③口口 |--⑤-|
45
口④①口 |--①-|
口②③① |--②-|
②口口③ |--③-|
口口口口 |--④-|
46
⑤口②口 |①---|
④口口④ |②-③-|
口①③口 |--④-|
口口口口 |--⑤-|
47
口口口口 |--①-|
④口①⑥ |②-③-|
口②⑤⑦ |④-⑤-|
③口口口 |⑥-⑦-|
48
①①②② |①---|
口口口口 |②--③|
口③口口
口口口口

口⑤口口
口口口口
口口口⑥ |④--⑤|
口口④口 |--⑥-|
49
口口⑥⑥ |--①-|
⑤④①口 |②-③-|
口②⑦⑦ |④⑤-⑥|
③口口口 |--⑦-|
50
口①⑤⑤ |①---|
④③①口 |②--③|
口②⑥⑥ |④--⑤|
口口②口 |--⑥-|
51
口①⑤口 |--①-|
口⑥②口 |②-③-|
口③⑦口 |④-⑤-|
口口④口 |⑥-⑦-|
52
口口口口 |①---|
③口口② |--②-|
⑤口口④ |③-④-|
口①口⑥ |⑤-⑥-|
53
口口③③ |①-②-|
口②②③ |--③-|
口口口口
①口口口

④④口口
④口⑤口
口口口口 |--④-|
口口口口 |--⑤-|
54
口⑤口口 |①---|
⑤②口④ |②-③-|
口口④口 |--④-|
口③①口 |--⑤-|
55
口口①口 |--①-|
口②口口 |②-③-|
⑤口③⑤ |④---|
口④口口 |⑤---|
56
口③②口 |①---|
①⑤④① |--②-|
口口⑥口 |③-④-|
口口口口 |⑤-⑥-|
57
④口口④ |①---|
③口口③ |②---|
②①口② |③---|
口口口口 |④---|

accuracy: 99.5%
最終更新:2023年01月17日 10:25