アットウィキロゴ
ドラマツルギー
Eve

EXTREME

Level: 9.2
BPM: 149
Notes: 631

1
口口口口 |----|
口口口口 |----|
口口口口 |----|
口口口口 |----|
2
③①④⑥ |①--②|
口②⑤口 |--③-|
口①④口 |④--⑤|
口口口口 |--⑥-|
3
口口口口 |①--②|
①③口口 |--③-|
②口口口 |----|
①口口口 |----|
4
⑥④①③ |①--②|
口⑤②口 |--③-|
口④①口 |④--⑤|
口口口口 |--⑥-|
5
口口口口 |①--②|
口口①③ |--③-|
口口②口 |----|
口口①口 |----|
6
⑤①口口 |①--②|
口②口口 |③④-⑤|
口①④③
口口口口

口口口口
口口⑥⑨
⑦⑧口口 |--⑥-|
口口口口 |⑦⑧-⑨|
7
口口口口 |①--②|
③①口口 |--③-|
口口②口 |----|
口①口口 |----|
8
口口①⑤ |①--②|
口口②口 |③④-⑤|
③④①口
口口口口

⑧⑥⑧口
口⑦口口
口口口口 |--⑥-|
口口口口 |⑦-⑧-|
9
口口口口 |--①-|
④⑦②⑤ |②-③-|
④③②① |④-⑤⑥|
口③⑥① |⑦---|
10
口③①③ |①②-③|
口口口口 |-④-⑤|
口⑤④②
口口口口

⑦口⑨口
口口⑦口
口口口口 |⑥-⑦-|
⑧⑧⑥口 |⑧-⑨-|
11
口口口口 |①-②③|
①③口② |-④⑤-|
①⑤口④
口口口口

口口口口
⑦口⑦口
口口口口 |--⑥-|
⑥口⑥口 |⑦---|
12
③①③口 |①②-③|
口口口口 |-④-⑤|
②④⑤口
口口口口

口⑨口⑦
口⑦口口
口口口口 |⑥-⑦-|
口⑥⑧⑧ |⑧-⑨-|
13
口口口口 |①-②③|
②口③① |-④⑤-|
④口⑤①
口口口口

口口口⑥
口⑦口⑨
口口口口 |⑥-⑦⑧|
口口⑧口 |⑨---|
14
③①③口 |①②-③|
口口口口 |-④-⑤|
②④⑤口
口口口口

口⑨口⑦
口⑦口口
口口口口 |⑥-⑦-|
口⑥⑧⑧ |⑧-⑨-|
15
口口口口 |①-②③|
②口③① |-④⑤-|
④口⑤①
口口口口

口口口口
口⑦口⑦
口口口口 |--⑥-|
口⑥口⑥ |⑦---|
16
口③①③ |①②-③|
口口口口 |-④-⑤|
口⑤④②
口口口口

⑦口⑨口
口口⑦口
口口口口 |⑥-⑦-|
⑧⑧⑥口 |⑧-⑨-|
17
口口口口 |①-②③|
①③口② |-④⑤-|
①⑤口④
口口口口

⑥⑧⑪⑩
口口口口
⑨口⑦口 |⑥-⑦⑧|
口口口口 |⑨-⑩⑪|
18
⑨⑨⑪⑩ |①-②③|
⑤⑥①⑦ |④-⑤⑥|
口②⑧口 |⑦⑧-⑨|
④③口口 |--⑩⑪|
19
⑪⑩⑨⑨ |①-②③|
口⑧①口 |④-⑤⑥|
⑥口⑦② |⑦⑧-⑨|
⑤口④③ |--⑩⑪|
20
口口口口 |①-②③|
①口口⑤ |④-⑤⑥|
口②口⑥
口③④口

口口⑨⑨
口⑧口口
⑦⑩⑩口 |⑦⑧-⑨|
口口口口 |--⑩-|
21
①①口口 |①-②③|
⑤④③② |④⑤⑥⑦|
口口口口
口口⑦⑥

口⑩口⑩
口口口口
口⑪口⑪ |⑧⑨-⑩|
⑨⑧口口 |--⑪-|
22
口⑥③⑤ |①-②-|
②⑥①⑤ |③-④-|
口口⑦口 |⑤-⑥-|
④口⑦口 |⑦---|
23
⑧口口口 |①-②-|
①⑦③⑤ |③-④-|
⑧②⑥④ |⑤-⑥-|
口口口口 |⑦-⑧-|
24
口②④⑥ |①-②-|
⑤⑦①③ |③-④-|
口②④⑥ |⑤-⑥-|
口⑧⑧口 |⑦-⑧-|
25
①口④口 |①--②|
口口口① |③-④-|
口③②口
口口口口

⑧⑨口口
⑤口⑦口
口口口口 |⑤-⑥-|
口⑥口口 |⑦-⑧⑨|
26
口口⑨⑨ |①-②③|
⑦①⑥⑤ |④-⑤⑥|
⑩⑧②口 |⑦⑧-⑨|
口口③④ |--⑩-|
27
①口口口 |①-②③|
⑤⑥口口 |④-⑤⑥|
口口④口
口口③②

⑨⑨⑪⑩
口口⑫⑦
口口口⑧ |⑦⑧-⑨|
口口口口 |-⑩⑪⑫|
28
口口口口 |①-②-|
②②口口 |③-④⑤|
④⑤口口
①①口③

口⑧⑧⑥
口口口⑦
口口口⑪ |⑥⑦-⑧|
⑨⑩口口 |-⑨⑩⑪|
29
②⑥⑨⑨ |①-②③|
③⑦①④ |④⑤-⑥|
口⑧⑤口 |⑦⑧-⑨|
⑩⑩口口 |--⑩-|
30
⑤⑤口⑦ |①-②-|
⑤⑧④① |③-④-|
③口⑥⑦ |⑤-⑥-|
口口②口 |⑦-⑧-|
31
③③口口 |①-②-|
⑦⑧⑤⑤ |③-④-|
⑧②④口 |⑤-⑥-|
①⑥⑥口 |⑦-⑧-|
32
④⑧②⑧ |①-②-|
口口口⑤ |③-④-|
口④⑥② |⑤-⑥-|
③⑦口① |⑦-⑧-|
33
口口口⑤ |--①-|
②口①口 |②-③-|
口③口⑥ |④-⑤-|
⑦口④⑦ |⑥-⑦-|
34
⑤①①⑦ |①②③④|
③⑤⑦口 |--⑤-|
⑤口②⑥ |⑥--⑦|
⑧④⑥⑧ |--⑧-|
35
⑦①①⑤ |①②③④|
口⑦⑤③ |--⑤-|
⑥②口⑤ |⑥--⑦|
口⑥④⑧ |--⑧-|
36
口③⑤② |①-②-|
①⑥⑨④ |③-④⑤|
⑧③口⑦ |⑥-⑦-|
①⑦口⑨ |⑧-⑨-|
37
口①口② |①-②-|
②口口④ |③-④-|
口③口口
④口口口

⑤⑦⑦口
口⑤口口
口口⑧⑥ |⑤-⑥-|
口口⑥⑧ |⑦-⑧-|
38
⑦⑩⑥⑤ |①-②③|
⑩⑦③② |④-⑤⑥|
①④⑨⑧ |⑦-⑧⑨|
④①⑫⑪ |⑩-⑪⑫|
39
口口⑦⑦ |①②③④|
口⑧③④ |⑤⑥⑦⑧|
①②口口
⑤⑥口口

⑩⑩口口
⑫口⑫口
⑪⑪⑨⑨ |⑨-⑩-|
口口口口 |⑪-⑫-|
40
口③口② |①---|
口口口② |②--③|
口口口②
①①①口

⑤口口口
⑥口口口
⑦口④口 |④-⑤⑥|
口⑧⑧口 |⑦-⑧-|
41
口口口口 |①-②-|
口①③口 |③-④-|
口④口②
口口口口

口⑤⑦⑦
口⑧口⑧
口口⑥口 |⑤⑥-⑦|
口口口口 |--⑧-|
42
②口③口 |①---|
②口口口 |②--③|
②口口口
口①①①

口口口⑥
口⑤口⑥
口④⑤口 |④--⑤|
口⑤口口 |--⑥-|
43
口③②口 |①-②③|
①口④口 |④-⑤⑥|
⑤⑥口口
口口口口

⑨口⑩口
口⑨口⑩
口口⑦⑧ |⑦⑧-⑨|
口口口口 |--⑩-|
44
口④⑦② |①---|
口⑥口口 |②-③-|
③⑦⑤口 |④-⑤-|
口①①口 |⑥-⑦-|
45
⑥④⑧④ |①-②-|
②⑦口① |③-④-|
⑥口⑧口 |⑤-⑥-|
③②口⑤ |⑦-⑧-|
46
③口口② |①---|
①口口口 |②-③-|
③①口②
①口口口

口口口口
口口口口
口口口口 |--④-|
⑤④④⑤ |--⑤-|
47
口口①口 |--①-|
⑨②口口 |②-③-|
⑦口③⑧ |④-⑤⑥|
⑤④⑩⑥ |⑦⑧⑨⑩|
48
口①口① |①---|
口②①② |②---|
口①②口
口②口口

⑤口③口
⑥口口口
⑦⑧口④ |③④⑤⑥|
口口⑧口 |⑦-⑧-|
49
口口口口 |①-②-|
口口③① |③-④-|
口口口口
口②口④

口⑤⑦⑧
⑦口口⑧
口口⑥口 |⑤⑥-⑦|
口口口口 |--⑧-|
50
③口⑥⑥ |①---|
⑤④②口 |②--③|
①①口② |④⑤-⑥|
①⑦⑦口 |--⑦-|
51
⑧①口⑨ |①-②③|
⑥⑧⑨⑦ |④⑤⑥⑦|
②④⑤③ |⑧-⑨-|
⑩⑩⑪⑪ |⑩-⑪-|
52
③①①④ |①---|
⑥口⑤口 |②-③-|
②④⑥② |④-⑤-|
口⑦口口 |⑥-⑦-|
53
④④①口 |①-②-|
口①口口 |③-④-|
口口口③
②口口口

口口⑧⑤
口⑧口口
⑥⑥⑦口 |⑤-⑥-|
口口口口 |⑦-⑧-|
54
④⑦口口 |①---|
②口②⑤ |②-③-|
⑥口⑤① |④-⑤-|
口③①⑦ |⑥-⑦-|
55
口口口④ |①-②-|
③口③口 |③-④-|
口②口②
①口口口

⑧口⑧口
口⑤口⑤
口口口口 |⑤-⑥-|
⑦⑥⑦⑥ |⑦-⑧-|
56
口口口② |①---|
口口口口 |--②-|
①①①①
口口口口

⑤口口口
口口口口
口⑥⑥口 |③-④-|
③口口④ |⑤-⑥-|
57
口③③口 |①---|
④④①① |②---|
④口口④ |③---|
②②④④ |④---|

accuracy: 99.5%
最終更新:2023年01月17日 10:25