アットウィキロゴ
Paradise Has No Border
東京スカパラダイスオーケストラ

BASIC

Level: 3
BPM: 181
Notes: 208

1
口口口口 |----|
口口口口 |----|
口口口口 |----|
口口口口 |----|
2
口口口口 |①---|
口口②口 |----|
口①口口 |②---|
口口口口 |----|
3
口口口口 |①---|
口①口口 |----|
口口②口 |②---|
口口口口 |----|
4
口口口口 |①---|
口口②口 |----|
口①口口 |②---|
口口口口 |----|
5
口口口口 |①---|
口①口口 |----|
口口②口 |②---|
口口口口 |----|
6
口口口② |①---|
口口口口 |----|
口口口口 |②---|
①口口口 |----|
7
①口口口 |①---|
口口口口 |----|
口口口口 |②---|
口口口② |----|
8
口口口② |①---|
口口口口 |----|
口口口口 |②---|
①口口口 |----|
9
①口口口 |①---|
口口口口 |----|
口口口口 |②---|
口口口② |----|
10
②口口③ |①---|
口①①口 |----|
口①①口 |②---|
口口口口 |③---|
11
口口口口 |①---|
①口口② |②---|
③口口④ |③---|
口口口口 |④---|
12
口口口口 |①---|
口口口口 |----|
口口口口 |----|
①口口口 |----|
13
口口口口 |----|
口口口口 |----|
口口口口 |----|
口口口口 |----|
14
②口口③ |①---|
口①①口 |----|
口①①口 |②---|
口口口口 |③---|
15
口口口口 |①---|
①口口② |②---|
③口口④ |③---|
口口口口 |④---|
16
口口口口 |①---|
口口口口 |----|
口口口口 |----|
①口口口 |----|
17
口口口口 |----|
口口口口 |----|
口口口口 |----|
口口口① |①---|
18
口口口口 |①---|
口口①口 |----|
口口口口 |----|
口口口口 |----|
19
口口口口 |----|
口口口口 |①---|
口①②口 |②---|
口口口口 |----|
20
①口口① |①---|
口口口口 |----|
口口口口 |----|
口口口口 |----|
21
口口口口 |----|
口口口口 |----|
口口口口 |----|
①口口口 |①---|
22
口口口口 |①---|
口①口口 |----|
口口口口 |----|
口口口口 |----|
23
口口口口 |----|
口口口口 |①---|
口②①口 |②---|
口口口口 |----|
24
①口口① |①---|
口口口口 |----|
口口口口 |----|
口口口口 |----|
25
口口口口 |----|
口口口口 |----|
口口口口 |----|
口口口口 |----|
26
②口口① |①---|
口口口口 |----|
口口口口 |②---|
口口口口 |----|
27
口口口口 |①---|
口①①口 |----|
口口口口 |----|
口口口口 |----|
28
口口口口 |①---|
口口口口 |----|
口口口口 |②---|
①口口② |----|
29
口口口口 |①---|
口口口口 |----|
口①①口 |----|
口口口口 |----|
30
②口口① |①---|
口口口口 |----|
口口口口 |②---|
口口口口 |----|
31
口口口口 |①---|
口①①口 |----|
口口口口 |----|
口口口口 |----|
32
口口口口 |①---|
口口口口 |----|
口①①口 |----|
口口口口 |----|
33
口口口口 |----|
口口口口 |----|
口口口口 |①---|
口①①口 |----|
34
口口口口 |①---|
①口口① |----|
口口口口 |----|
口口口口 |----|
35
口口口口 |----|
口口口口 |----|
口口口口 |----|
口口口口 |----|
36
①①口口 |①---|
口口口口 |----|
口口口口 |----|
口口口口 |----|
37
口口①① |①---|
口口口口 |----|
口口口口 |----|
口口口口 |----|
38
口口口口 |①---|
口口口口 |----|
①①②② |②---|
口口口口 |----|
39
口口口口 |①---|
口口口口 |----|
口口口口 |②---|
①①②② |----|
40
①①口口 |①---|
口口口口 |----|
口口口口 |----|
口口口口 |----|
41
口口①① |①---|
口口口口 |----|
口口口口 |----|
口口口口 |----|
42
口口口口 |①---|
口口口口 |----|
①①②② |②---|
口口口口 |----|
43
口口口口 |①---|
口口口口 |----|
口口口口 |②---|
①①②② |----|
44
②口口③ |①---|
口①①口 |----|
口①①口 |②---|
口口口口 |③---|
45
口口口口 |①---|
①口口② |②---|
③口口④ |③---|
口口口口 |④---|
46
口口口口 |①---|
口口口口 |----|
口口口口 |----|
①口口口 |----|
47
口口口口 |----|
口口口口 |----|
口口口口 |----|
口口口口 |----|
48
②口口③ |①---|
口①①口 |----|
口①①口 |②---|
口口口口 |③---|
49
口口口口 |①---|
①口口② |②---|
③口口④ |③---|
口口口口 |④---|
50
口口口口 |①---|
口口口口 |----|
口口口口 |----|
①口口口 |----|
51
口口口口 |----|
口口口口 |----|
口口口口 |----|
口口口① |①---|
52
口口口口 |①---|
口口①口 |----|
口口口口 |----|
口口口口 |----|
53
口口口口 |----|
口口口口 |①---|
口①②口 |②---|
口口口口 |----|
54
①口口① |①---|
口口口口 |----|
口口口口 |----|
口口口口 |----|
55
口口口口 |----|
口口口口 |----|
口口口口 |----|
①口口口 |①---|
56
口口口口 |①---|
口①口口 |----|
口口口口 |----|
口口口口 |----|
57
口口口口 |----|
口口口口 |①---|
口②①口 |②---|
口口口口 |----|
58
①口口① |①---|
口口口口 |----|
口口口口 |----|
口口口口 |----|
59
口口口口 |----|
口口口口 |----|
口口口口 |----|
口口口口 |----|
60
②口口① |①---|
口口口口 |----|
口口口口 |②---|
口口口口 |----|
61
口口口口 |①---|
口①①口 |----|
口口口口 |----|
口口口口 |----|
62
口口口口 |①---|
口口口口 |----|
口口口口 |②---|
①口口② |----|
63
口口口口 |①---|
口口口口 |----|
口①①口 |----|
口口口口 |----|
64
②口口① |①---|
口口口口 |----|
口口口口 |②---|
口口口口 |----|
65
口口口口 |①---|
口①①口 |----|
口口口口 |----|
口口口口 |----|
66
口口口口 |①---|
口口口口 |----|
口①①口 |----|
口口口口 |----|
67
口口口口 |----|
口口口口 |----|
口口口口 |①---|
口①①口 |----|
68
口口口口 |①---|
①口口① |----|
口口口口 |----|
口口口口 |----|
69
口口口口 |----|
口口口口 |----|
口口口口 |----|
口口口口 |----|
70
①①口口 |①---|
口口口口 |----|
口口口口 |----|
口口口口 |----|
71
口口①① |①---|
口口口口 |----|
口口口口 |----|
口口口口 |----|
72
口口口口 |①---|
口口口口 |----|
①①②② |②---|
口口口口 |----|
73
口口口口 |①---|
口口口口 |----|
口口口口 |②---|
①①②② |----|
74
①①口口 |①---|
口口口口 |----|
口口口口 |----|
口口口口 |----|
75
口口①① |①---|
口口口口 |----|
口口口口 |----|
口口口口 |----|
76
口口口口 |①---|
口口口口 |----|
①①②② |②---|
口口口口 |----|
77
口口口口 |①---|
口口口口 |----|
口口口口 |②---|
①①②② |----|
78
①①口口 |①---|
口口口口 |----|
口口②口 |②---|
口口口口 |----|
79
口口①① |①---|
口口口口 |----|
口②口口 |②---|
口口口口 |----|
80
口口口口 |①---|
①①②② |----|
口口口口 |②---|
口口口口 |----|
81
口口口口 |①---|
口口口口 |----|
口口口口 |②---|
①①②② |----|
82
①①口口 |①---|
口口口口 |----|
口口②口 |②---|
口口口口 |----|
83
口口①① |①---|
口口口口 |----|
口②口口 |②---|
口口口口 |----|
84
口口口口 |①---|
①①②② |----|
口口口口 |②---|
口口口口 |----|
85
口口口口 |①---|
口口口口 |----|
口口口口 |②---|
①①②② |----|
86
②口口③ |①---|
口①①口 |----|
口①①口 |②---|
口口口口 |③---|
87
口口口口 |①---|
①口口② |②---|
③口口④ |③---|
口口口口 |④---|
88
口口口口 |①---|
口①①口 |----|
口口口口 |----|
口口口口 |----|

accuarcy: 99.5%
最終更新:2024年09月08日 17:04