アットウィキロゴ
Paradise Has No Border
東京スカパラダイスオーケストラ

ADVANCED

Level: 6
BPM: 181
Notes: 491

1
口口口口 |----|
口口口口 |----|
口口口口 |----|
口口口口 |----|
2
口口口⑤ |①---|
口③②口 |②-③-|
①口口口 |--④-|
口口口④ |--⑤-|
3
①口口口 |--①-|
口③②口 |--②-|
口口口口 |③---|
口口口④ |④---|
4
口口口⑤ |①---|
口③②口 |②-③-|
①口口口 |--④-|
口口口④ |--⑤-|
5
①口口口 |--①-|
口③②口 |--②-|
口口口口 |③---|
口口口④ |④---|
6
口口⑤⑤ |①---|
口③②口 |②-③-|
①①口口 |--④-|
口口口④ |--⑤-|
7
①口口口 |--①-|
口③②口 |--②-|
口口口口 |③---|
口口口④ |④---|
8
口口⑤⑤ |①---|
口③②口 |②-③-|
①①口口 |--④-|
口口口④ |--⑤-|
9
①口口口 |--①-|
口③②口 |--②-|
口口口口 |③---|
口口口④ |④---|
10
①②④口 |①-②-|
⑤口③③ |③---|
口口③③ |④-⑤-|
口⑦⑥口 |⑥-⑦-|
11
口口口① |①---|
口②④口 |②-③-|
口⑤③口 |--④-|
口口⑥口 |⑤-⑥-|
12
①①口口 |①---|
口口口口 |----|
口口口口 |----|
口口口② |--②-|
13
④口口① |--①-|
口②③口 |--②-|
口口口口 |③---|
口口口口 |④---|
14
口④②① |①-②-|
③③口⑤ |③---|
③③口口 |④-⑤-|
口⑥⑦口 |⑥-⑦-|
15
①口口口 |①---|
口④②口 |②-③-|
口③⑤口 |--④-|
口⑥口口 |⑤-⑥-|
16
口口①① |①---|
口口口口 |----|
口口口口 |----|
②口口口 |--②-|
17
①口口口 |--①-|
口③②⑥ |--②-|
口口⑤口 |③-④-|
口口口④ |⑤-⑥-|
18
①①②② |①---|
口口口口 |②---|
口口口口 |③---|
③③④④ |④---|
19
③口②④ |①---|
④②口③ |②---|
口①①口 |③-④-|
口⑤⑤口 |--⑤-|
20
口口口口 |----|
口口口口 |----|
口口口口 |----|
口口口① |--①-|
21
口口口① |--①-|
⑥②③口 |--②-|
口⑤口口 |③-④-|
④口口口 |⑤-⑥-|
22
②②①① |①---|
口口口口 |②---|
口口口口 |③---|
④④③③ |④---|
23
④②口③ |①---|
③口②④ |②---|
口①①口 |③-④-|
口⑤⑤口 |--⑤-|
24
口口口口 |----|
口口口口 |----|
口口口口 |----|
①口口口 |--①-|
25
①口口口 |--①-|
口③②口 |--②-|
口口口口 |③---|
口口口④ |④---|
26
①口①③ |①---|
②④②口 |②---|
口口口⑤ |③-④-|
口⑥口口 |⑤-⑥-|
27
口口口口 |①-②-|
②口口① |--③-|
口口口口 |----|
口口③口 |----|
28
口①⑥① |①---|
⑤②口② |②---|
口口④口 |③-④-|
③口口口 |⑤-⑥-|
29
口口口口 |----|
口口口口 |①---|
①①②② |----|
口口口口 |②---|
30
①口①③ |①---|
②④②口 |②---|
口口口⑤ |③-④-|
口⑥口口 |⑤-⑥-|
31
口口口口 |①-②-|
②口⑤① |--③-|
口④口口 |--④-|
口口③口 |⑤---|
32
①口口① |①---|
口口口口 |----|
口口口口 |----|
口口口口 |----|
33
口口口口 |----|
口①②口 |----|
口②①口 |①---|
口口口口 |②---|
34
①②③④ |①---|
口口口口 |②---|
口口口口 |③---|
口口口口 |④---|
35
口口口口 |①---|
口口口口 |②---|
口口口口 |③---|
①②③④ |④---|
36
③口口口 |①-②-|
②⑤⑤口 |③---|
①口口口 |④---|
口口④口 |⑤---|
37
口④口① |①-②-|
口口口② |③---|
口⑤⑤③ |④---|
口口口口 |⑤---|
38
口口口④ |①-②-|
③口口⑤ |③---|
②口口⑥ |④-⑤-|
①口口口 |⑥---|
39
口⑤⑤口 |①-②-|
口③口口 |③---|
口②口口 |④---|
口①④口 |⑤---|
40
③口口口 |①-②-|
②⑤⑤口 |③---|
①口口口 |④---|
口口④口 |⑤---|
41
口④口① |①-②-|
口口口② |③---|
口⑤⑤③ |④---|
口口口口 |⑤---|
42
口口口④ |①-②-|
③口口⑤ |③---|
②口口⑥ |④-⑤-|
①口口口 |⑥---|
43
口口口⑤ |①-②-|
口③口口 |③---|
口②口口 |④---|
口①④口 |⑤---|
44
①②④口 |①-②-|
⑤口③③ |③---|
口口③③ |④-⑤-|
口⑦⑥口 |⑥-⑦-|
45
口口口① |①---|
口②④口 |②-③-|
口⑤③口 |--④-|
口口⑥口 |⑤-⑥-|
46
①①口口 |①---|
口口口口 |----|
口口口口 |----|
口口口② |--②-|
47
④口口① |--①-|
口②③口 |--②-|
口口口口 |③---|
口口口口 |④---|
48
口④②① |①-②-|
③③口⑤ |③---|
③③口口 |④-⑤-|
口⑥⑦口 |⑥-⑦-|
49
①口口口 |①---|
口④②口 |②-③-|
口③⑤口 |--④-|
口⑥口口 |⑤-⑥-|
50
口口①① |①---|
口口口口 |----|
口口口口 |----|
②口口口 |--②-|
51
①口口口 |--①-|
口③②⑥ |--②-|
口口⑤口 |③-④-|
口口口④ |⑤-⑥-|
52
①①②② |①---|
口口口口 |②---|
口口口口 |③---|
③③④④ |④---|
53
③口②④ |①---|
④②口③ |②---|
口①①口 |③-④-|
口⑤⑤口 |--⑤-|
54
口口口口 |----|
口口口口 |----|
口口口口 |----|
口口口口 |----|
55
口口口口 |①---|
⑥口口① |②---|
口⑤口② |③-④-|
④口口③ |⑤-⑥-|
56
②②①① |①---|
口口口口 |②---|
口口口口 |③---|
④④③③ |④---|
57
④②口③ |①---|
③口②④ |②---|
口①①口 |③-④-|
口⑤⑤口 |--⑤-|
58
口口口口 |----|
口口口口 |----|
口口口口 |----|
口口口口 |----|
59
口口口口 |①---|
①口口口 |②---|
②口口口 |③---|
③口口④ |④---|
60
①口①③ |①---|
②④②口 |②---|
口口口⑤ |③-④-|
口⑥口口 |⑤-⑥-|
61
口口口口 |①-②-|
②口口① |--③-|
口口口口 |----|
口口③口 |----|
62
口①⑥① |①---|
⑤②口② |②---|
口口④口 |③-④-|
③口口口 |⑤-⑥-|
63
口口口口 |----|
口①口口 |①---|
口②口口 |②---|
口③口口 |③---|
64
①口①③ |①---|
②④②口 |②---|
口口口⑤ |③-④-|
口⑥口口 |⑤-⑥-|
65
口口口口 |①-②-|
②口⑤① |--③-|
口④口口 |--④-|
口口③口 |⑤---|
66
①口口① |①---|
口口口口 |----|
口口口口 |----|
口口口口 |----|
67
口口口口 |----|
口①②口 |----|
口②①口 |①---|
口口口口 |②---|
68
①②③④ |①---|
口口口口 |②---|
口口口口 |③---|
口口口口 |④---|
69
口口口口 |①---|
口口口口 |②---|
口口口口 |③---|
①②③④ |④---|
70
③口口口 |①-②-|
②⑤⑤口 |③---|
①口口口 |④---|
口口④口 |⑤---|
71
口④口① |①-②-|
口口口② |③---|
口⑤⑤③ |④---|
口口口口 |⑤---|
72
口口口④ |①-②-|
③口口⑤ |③---|
②口口⑥ |④-⑤-|
①口口口 |⑥---|
73
口⑤⑤口 |①-②-|
口③口口 |③---|
口②口口 |④---|
口①④口 |⑤---|
74
③口口口 |①-②-|
②⑤⑤口 |③---|
①口口口 |④---|
口口④口 |⑤---|
75
口④口① |①-②-|
口口口② |③---|
口⑤⑤③ |④---|
口口口口 |⑤---|
76
口口口④ |①-②-|
③口口⑤ |③---|
②口口⑥ |④-⑤-|
①口口口 |⑥---|
77
口⑤⑤口 |①-②-|
口③口口 |③---|
口②口口 |④---|
口①④口 |⑤---|
78
口口口口 |①-②-|
③⑤⑤口 |③---|
口②口口 |④---|
①口④口 |⑤---|
79
口④口口 |①-②-|
口⑤⑤① |③---|
口口②口 |④---|
口口口③ |⑤---|
80
口口口④ |①-②-|
③口⑤口 |③---|
口②口⑥ |④-⑤-|
①口口口 |⑥---|
81
口⑤⑤口 |①-②-|
口③口口 |③---|
②口口口 |④---|
口①④口 |⑤---|
82
口口口口 |①-②-|
③⑤⑤口 |③---|
口②口口 |④---|
①口④口 |⑤---|
83
口④口口 |①-②-|
口⑤⑤① |③---|
口口②口 |④---|
口口口③ |⑤---|
84
口口口④ |①-②-|
③口⑤口 |③---|
口②口⑥ |④-⑤-|
①口口口 |⑥---|
85
口口口⑤ |①-②-|
口③口口 |③---|
②口口口 |④---|
口①④口 |⑤---|
86
①②④口 |①-②-|
⑤口③③ |③---|
口口③③ |④-⑤-|
口⑦⑥口 |⑥-⑦-|
87
口口口① |①---|
口②④口 |②-③-|
口⑤③口 |--④-|
口口⑥口 |⑤-⑥-|
88
①①①① |①---|
口口口口 |----|
口口口口 |----|
口口口口 |----|

accuracy: 99.5%
最終更新:2024年09月08日 17:04