アットウィキロゴ
Paradise Has No Border
東京スカパラダイスオーケストラ

EXTREME

Level: 8
BPM: 181
Notes: 769

1
口口口口 |----|
口口口口 |----|
口口口口 |----|
口口口口 |----|
2
口口口② |①---|
口口口口 |②-③-|
口口③口
①口口口

口口口口
口口④口
口口口口 |--④-|
⑤口口口 |--⑤-|
3
①口口口 |--①-|
口口口② |--②-|
口④口口 |③---|
口口③口 |④---|
4
口口口② |①---|
口口口口 |②-③-|
口口③口
①①口口

口口口口
口口④口
口口口口 |--④-|
⑤⑤口口 |--⑤-|
5
①①口口 |--①-|
口口口② |--②-|
口④口口 |③---|
口口③口 |④---|
6
②口口② |①---|
口口口口 |②-③-|
口口③口
①①口①

口口口口
口口④口
口口口口 |--④-|
⑤⑤口⑤ |--⑤-|
7
①①口① |--①-|
口口口② |--②-|
口④口口 |③---|
口口③口 |④---|
8
②口口② |①---|
口口口口 |②-③-|
口口③口
①①口①

口口口口
口口④口
口口口口 |--④-|
⑤⑤口⑤ |--⑤-|
9
①①口① |--①-|
口口口② |--②-|
口④口口 |③---|
口口③口 |④---|
10
④口③⑤ |①-②-|
①①③③ |③---|
口⑥③③ |④-⑤-|
②②⑦口 |⑥-⑦-|
11
口②②口 |①---|
①④口口 |②-③-|
①口⑤口 |--④-|
③⑥口口 |⑤-⑥-|
12
②口口口 |①---|
口口口① |②-③-|
口③口口
口口口①

口口口口
口④口口
口口口口 |--④-|
⑤口⑤⑤ |--⑤-|
13
①口①① |--①-|
②口口口 |--②-|
口口④口 |③---|
口③口口 |④---|
14
⑤③口④ |①-②-|
③③①① |③---|
③③⑥口 |④-⑤-|
口⑦②② |⑥-⑦-|
15
口②②口 |①---|
口口④① |②-③-|
口⑤口① |--④-|
口口⑥③ |⑤-⑥-|
16
口口口② |①---|
①口口口 |②-③-|
口口③口
①口口口

口口口口
口口④口
口口口口 |--④-|
⑤⑤口⑤ |--⑤-|
17
①①⑥① |--①-|
口口口② |--②-|
④口口⑤ |③-④-|
口口③口 |⑤-⑥-|
18
①①口口 |①---|
②②口口 |②---|
③③口口 |③---|
④④口口 |④---|
19
①①④③ |①---|
②②②② |②---|
③③④③ |③-④-|
口⑤⑤口 |--⑤-|
20
①口口口 |----|
口③口口 |①-②-|
口②口口 |--③-|
④口④④ |--④-|
21
①⑥①① |--①-|
②口口口 |--②-|
⑤口口④ |③-④-|
口③口口 |⑤-⑥-|
22
口口①① |①---|
口口②② |②---|
口口③③ |③---|
口口④④ |④---|
23
③④①① |①---|
②②②② |②---|
③④③③ |③-④-|
口⑤⑤口 |--⑤-|
24
口口口① |----|
口口③口 |①-②-|
口口②口 |--③-|
④④口④ |--④-|
25
①①口① |--①-|
口口口② |--②-|
口④口口 |③---|
口口③口 |④---|
26
③③口① |①---|
口口④④ |②---|
⑤⑤口口 |③-④-|
②口⑥⑥ |⑤-⑥-|
27
口口②③ |①-②-|
③①口口 |--③-|
口口①③ |----|
③②口口 |----|
28
①④③口 |①---|
④口⑤③ |②---|
口⑥口⑤ |③-④-|
⑥口口② |⑤-⑥-|
29
①口口口 |----|
口①口② |①---|
①口②口 |----|
口口口② |②---|
30
③③口① |①---|
口口④④ |②---|
⑤⑤口口 |③-④-|
②口⑥⑥ |⑤-⑥-|
31
口口②③ |①-②-|
③①⑤口 |--③-|
口④①③ |--④-|
③②口口 |⑤---|
32
①口口口 |①---|
口口口② |②---|
①③口口 |③---|
口口口④ |④---|
33
口口①口 |①---|
②口口口 |②---|
口④③口 |③---|
口③④口 |④---|
34
④①口① |①---|
③口口口 |②---|
②口口口 |③---|
口口口口 |④---|
35
口口口④ |①---|
口口口③ |②---|
口口口② |③---|
口口口① |④---|
36
⑤④口口 |①-②-|
①①口口 |③---|
②②口口 |④---|
③③口⑤ |⑤---|
37
⑤口③③ |①-②-|
口④②② |③---|
口口①① |④---|
口口口⑤ |⑤---|
38
口④⑤⑥ |①-②-|
口④⑤⑥ |③---|
③②①口 |④-⑤-|
③②①口 |⑥---|
39
⑤④口口 |①-②-|
口口口口 |③---|
③②①口 |④---|
③②①⑤ |⑤---|
40
⑤④③③ |①-②-|
口口②② |③---|
口口①① |④---|
口口口⑤ |⑤---|
41
⑤口口口 |①-②-|
①①口口 |③---|
②②④口 |④---|
③③口⑤ |⑤---|
42
口①②③ |①-②-|
口①②③ |③---|
⑥⑤④口 |④-⑤-|
⑥⑤④口 |⑥---|
43
口①②③ |①-②-|
口①②③ |③---|
口⑤口口 |④---|
口口④④ |⑤---|
44
④口③⑤ |①-②-|
①①③③ |③---|
口⑥③③ |④-⑤-|
②②⑦口 |⑥-⑦-|
45
口②②口 |①---|
①④口口 |②-③-|
①口⑤口 |--④-|
③⑥口口 |⑤-⑥-|
46
②口口口 |①---|
口口口① |②-③-|
口③口口
口口口①

口口口口
口④口口
口口口口 |--④-|
⑤口⑤⑤ |--⑤-|
47
①口①① |--①-|
②口口口 |--②-|
口口④口 |③---|
口③口口 |④---|
48
⑤③口④ |①-②-|
③③①① |③---|
③③⑥口 |④-⑤-|
口⑦②② |⑥-⑦-|
49
口②②口 |①---|
口口④① |②-③-|
口⑤口① |--④-|
口口⑥③ |⑤-⑥-|
50
口口口② |①---|
①口口口 |②-③-|
口口③口
①口口口

口口口口
口口④口
口口口口 |--④-|
⑤⑤口⑤ |--⑤-|
51
①①⑥① |--①-|
口口口② |--②-|
④口口⑤ |③-④-|
口口③口 |⑤-⑥-|
52
①①口口 |①---|
②②口口 |②---|
③③口口 |③---|
④④口口 |④---|
53
①①④③ |①---|
②②②② |②---|
③③④③ |③-④-|
口⑤⑤口 |--⑤-|
54
口口口口 |----|
①①口口 |①---|
②②口口 |②---|
③③口口 |③---|
55
①①口口 |①---|
②②口口 |②---|
口口口口
口口口口

口⑥口口
口口口口
③③口口 |③-④-|
口⑤④口 |⑤-⑥-|
56
口口①① |①---|
口口②② |②---|
口口③③ |③---|
口口④④ |④---|
57
③④①① |①---|
②②②② |②---|
③④③③ |③-④-|
口⑤⑤口 |--⑤-|
58
口口口口 |----|
口口①① |①---|
口口②② |②---|
口口③③ |③---|
59
③口①① |①---|
口口②② |②---|
⑨⑤④⑧ |③-④⑤|
口⑦⑥口 |⑥⑦⑧⑨|
60
③③口① |①---|
口口④④ |②---|
⑤⑤口口 |③-④-|
②口⑥⑥ |⑤-⑥-|
61
口口②③ |①-②-|
③①口口 |--③-|
口口①③ |----|
③②口口 |----|
62
①④③口 |①---|
④口⑤③ |②---|
口⑥口⑤ |③-④-|
⑥口口② |⑤-⑥-|
63
②口⑤① |--①②|
⑩④⑪⑦ |③④⑤⑥|
⑥口③口 |⑦⑧⑨⑩|
口⑧口⑨ |⑪---|
64
③③口① |①---|
口口④④ |②---|
⑤⑤口口 |③-④-|
②口⑥⑥ |⑤-⑥-|
65
口口②③ |①-②-|
③①⑤口 |--③-|
口④①③ |--④-|
③②口口 |⑤---|
66
①口口口 |①---|
口口口② |②---|
①③口口 |③---|
口口口④ |④---|
67
口口①口 |①---|
②口口口 |②---|
口④③口 |③---|
口③④口 |④---|
68
④①④① |①-②-|
口⑦口⑦ |③-④-|
口⑥⑤口 |⑤-⑥-|
②⑧口③ |⑦-⑧-|
69
口口口① |①-②③|
②口⑥口 |④-⑤⑥|
③口⑤口
④口口口

口口⑦⑪
口口口⑧
口口口⑨ |⑦-⑧⑨|
口口口⑩ |⑩-⑪-|
70
⑤④口口 |①-②-|
①①口口 |③---|
②②口口 |④---|
③③口⑤ |⑤---|
71
⑤口③③ |①-②-|
口④②② |③---|
口口①① |④---|
口口口⑤ |⑤---|
72
口④⑤⑥ |①-②-|
口④⑤⑥ |③---|
③②①口 |④-⑤-|
③②①口 |⑥---|
73
⑤④口口 |①-②-|
口口口口 |③---|
③②①口 |④---|
③②①⑤ |⑤---|
74
⑤④③③ |①-②-|
口口②② |③---|
口口①① |④---|
口口口⑤ |⑤---|
75
⑤口口口 |①-②-|
①①口口 |③---|
②②④口 |④---|
③③口⑤ |⑤---|
76
口①②③ |①-②-|
口①②③ |③---|
⑥⑤④口 |④-⑤-|
⑥⑤④口 |⑥---|
77
口①②③ |①-②-|
口①②③ |③---|
口⑤口口 |④---|
口口④④ |⑤---|
78
①①口口 |①-②-|
口②②⑤ |③---|
口口③③ |④---|
⑤口④口 |⑤---|
79
口⑤③③ |①-②-|
口②②口 |③---|
①①口④ |④---|
口口⑤口 |⑤---|
80
⑥口口③ |①-②-|
⑥口口③ |③---|
①②⑤④ |④-⑤-|
①②⑤④ |⑥---|
81
口口④③ |①-②-|
⑤口口③ |③---|
①②口口 |④---|
①②口⑤ |⑤---|
82
①①口口 |①-②-|
口②②⑤ |③---|
口口③③ |④---|
⑤口④口 |⑤---|
83
口⑤③③ |①-②-|
口②②口 |③---|
①①口④ |④---|
口口⑤口 |⑤---|
84
⑥口口③ |①-②-|
⑥口口③ |③---|
①②⑤④ |④-⑤-|
①②⑤④ |⑥---|
85
口口口③ |①-②-|
口口口③ |③---|
①②口口 |④---|
①②④④ |----|
86
④口③⑤ |①-②-|
①①③③ |③---|
口⑥③③ |④-⑤-|
②②⑦口 |⑥-⑦-|
87
口②②口 |①---|
①④口口 |②-③-|
①口⑤口 |--④-|
③⑥口口 |⑤-⑥-|
88
①口口口 |①---|
①口①口 |----|
口①口① |----|
口口口① |----|

accuracy: 99.5%
最終更新:2024年09月08日 17:05