アットウィキロゴ
Be The One
PANDORA feat. Beverly

BASIC

Level: 2
BPM: 136
Notes: 158

1
口口口口 |----|
口口口口 |----|
口口口口 |----|
口口口口 |----|
2
口口口口 |①---|
口口口口 |----|
口口口口 |----|
口①①口 |----|
3
口口口口 |①---|
口口口口 |----|
口①①口 |----|
口口口口 |----|
4
口口口口 |①---|
口①①口 |----|
口口口口 |----|
口口口口 |----|
5
口①①口 |①---|
口口口口 |----|
口口口口 |----|
口口口口 |----|
6
①口口① |①---|
口口口口 |----|
口口口口 |----|
口口口口 |----|
7
口口口口 |①---|
①口口① |----|
口口口口 |----|
口口口口 |----|
8
口口口口 |①---|
口口口口 |----|
①口口① |----|
口口口口 |----|
9
口口口口 |①---|
口口口口 |----|
口口口口 |----|
①口口① |----|
10
口口口口 |①---|
口②口口 |----|
口①口口 |②---|
口口口口 |----|
11
口口口口 |----|
口口①口 |----|
口口口口 |①---|
口口口口 |----|
12
口口口口 |①---|
口口口口 |----|
口口①口 |②---|
口口②口 |----|
13
口口口口 |①---|
②②①① |----|
口口口口 |②---|
口口口口 |----|
14
口口口口 |①---|
口口②口 |----|
口口①口 |②---|
口口口口 |----|
15
口口口口 |----|
口①口口 |----|
口口口口 |①---|
口口口口 |----|
16
口口口口 |①---|
口口口口 |----|
口①口口 |②---|
口②口口 |----|
17
口口口口 |①---|
口口口口 |----|
口口口口 |----|
口口①口 |----|
18
口口口口 |①---|
口②口口 |----|
口①口口 |②---|
口口口口 |----|
19
口口口口 |----|
口口①口 |----|
口口口口 |①---|
口口口口 |----|
20
口口口口 |①---|
口口口口 |----|
口口①口 |②---|
口口②口 |----|
21
口口口口 |①---|
②②①① |----|
口口口口 |②---|
口口口口 |----|
22
口口口口 |①---|
口口②口 |----|
口口①口 |②---|
口口口口 |----|
23
口口口口 |----|
口①口口 |----|
口口口口 |①---|
口口口口 |----|
24
口口口口 |①---|
口口口口 |----|
口①口口 |②---|
口②口口 |----|
25
口②②口 |①---|
口①①口 |----|
口口口口 |②---|
口口口口 |----|
26
口口口口 |----|
口口口口 |----|
口口口口 |----|
口口口口 |----|
27
口口口④ |①---|
①②③口 |②---|
口口口口 |③---|
口口口口 |④---|
28
口②①口 |①---|
口④口口 |②---|
口口③口 |③---|
口口口口 |④---|
29
④③②① |①---|
口口口口 |②---|
口口口口 |③---|
口口口口 |④---|
30
口口①口 |①---|
口②口口 |②---|
口口③口 |③---|
口④口口 |④---|
31
口口口口 |①---|
口口口④ |②---|
①②③口 |③---|
口口口口 |④---|
32
口口口口 |①---|
口②①口 |②---|
口④口口 |③---|
口口③口 |④---|
33
④③②① |①---|
口口口口 |②---|
口口口口 |③---|
口口口口 |④---|
34
口口①口 |①---|
口②口口 |②---|
口口③口 |③---|
口④口口 |④---|
35
口口口④ |①---|
口口口③ |②---|
口口口② |③---|
口口口① |④---|
36
④口口口 |①---|
③口口口 |②---|
②口口口 |③---|
①口口口 |④---|
37
口口④口 |①---|
口口③口 |②---|
口口②口 |③---|
口口①口 |④---|
38
口④口口 |①---|
口③口口 |②---|
口②口口 |③---|
口①口口 |④---|
39
口口③③ |①---|
口口②② |②---|
④④①① |③---|
口口口口 |④---|
40
②②口口 |①---|
①①口口 |②---|
口口口口
口口口口

口口口口
口④③口
口口口口 |③---|
口口口口 |④---|
41
口④④口 |①---|
口③③口 |②---|
口②②口 |③---|
口①①口 |④---|
42
④④④④ |①---|
③③③③ |②---|
②②②② |③---|
①①①① |④---|
43
口口口口 |----|
口口口口 |----|
口口口口 |----|
口口口口 |----|
44
口口口口 |----|
口口口口 |----|
口口口口 |----|
口口口口 |----|
45
口口口口 |----|
口口口口 |----|
口口口口 |----|
口口口口 |----|
46
口①口口 |①---|
口口②口 |②---|
口③口口 |③---|
口口④口 |④---|
47
口口口口 |①---|
口口口④ |②---|
①②③口 |③---|
口口口口 |④---|
48
口口口口 |①---|
口②①口 |②---|
口口口口 |----|
口口口口 |----|
49
口口口口 |①---|
①②③口 |②---|
口口口口 |③---|
口口口口 |----|
50
④④④④ |①---|
口③③口 |②---|
口②②口 |③---|
口①①口 |④---|

accuracy: 99.5%
最終更新:2024年09月08日 17:06