アットウィキロゴ
Be The One
PANDORA feat. Beverly

ADVANCED

Level: 5
BPM: 136
Notes: 274

1
口口口口 |----|
口口口口 |----|
口口口口 |----|
口口口口 |----|
2
①口口口 |①---|
口口口② |②---|
③口口口 |③---|
口口口④ |④---|
3
口口口口 |①---|
口①②口 |----|
口口口口 |②---|
口口口口 |----|
4
口口口口 |①---|
口口口口 |----|
口口口口 |②---|
①口口② |----|
5
①口口② |①---|
口口口口 |----|
口口口口 |②---|
口口口口 |----|
6
①口口口 |①---|
口口口② |②---|
③口口口 |③---|
口口口④ |④---|
7
口口口口 |①---|
口①②口 |----|
口口口口 |②---|
口口口口 |----|
8
①口口口 |①---|
口口口② |----|
口口口口 |②---|
口口口口 |----|
9
口口口口 |①---|
③口口口 |----|
①口口口 |②---|
口口口② |--③-|
10
口口口口 |①---|
口口口② |--②-|
口①③口 |③---|
口口口口 |----|
11
口口口口 |----|
口⑤④口 |--①-|
口③②口 |②-③-|
口①口口 |④-⑤-|
12
②口①口 |①---|
口口口口 |--②-|
口③口口 |③---|
口口口口 |----|
13
③③①① |①---|
口口口⑤ |②---|
口口口口 |③---|
④④②② |④-⑤-|
14
口口口口 |①---|
②口口口 |--②-|
口③①口 |③---|
口口口口 |----|
15
口口①口 |----|
口②③口 |--①-|
口④⑤口 |②-③-|
口口口口 |④-⑤-|
16
④口口口 |①---|
口口口② |--②-|
口口口口 |③---|
口①③口 |--④-|
17
口口②口 |①-②-|
④①口③ |③---|
口口口口 |----|
口口口口 |--④-|
18
口口口口 |①---|
口口口② |--②-|
口①③口 |③---|
口口口口 |----|
19
口口口口 |----|
口⑤④口 |--①-|
口③②口 |②-③-|
口①口口 |④-⑤-|
20
②口①口 |①---|
口口口口 |--②-|
口③口口 |③---|
口口口口 |----|
21
③③①① |①---|
口口口⑤ |②---|
口口口口 |③---|
④④②② |④-⑤-|
22
口口口口 |①---|
②口口口 |--②-|
口③①口 |③---|
口口口口 |----|
23
口口①口 |----|
口②③口 |--①-|
口④⑤口 |②-③-|
口口口口 |④-⑤-|
24
口口口口 |①---|
口口口② |--②-|
口口口口 |③---|
口①③口 |----|
25
③③③③ |①---|
口②②口 |②---|
口①①口 |③---|
口口口口 |----|
26
口口口口 |----|
口口口口 |----|
口口口口 |----|
口口口口 |----|
27
①①⑤⑤ |①---|
④①⑤口 |②-③-|
口口口② |--④-|
口口③口 |⑤---|
28
口口口口 |①-②-|
口④③口 |----|
①④③口 |③---|
口②口口 |④---|
29
口口①① |①---|
②⑥口③ |②-③-|
口④⑤口 |④-⑤-|
口口口口 |--⑥-|
30
②②①① |①-②-|
口口⑤⑤ |③-④-|
口④③口 |⑤---|
⑥口口⑦ |⑥-⑦-|
31
①①⑤⑤ |①---|
④①⑤口 |②-③-|
口口口② |--④-|
口口③口 |⑤---|
32
口口口口 |①-②-|
口④③口 |----|
①④③口 |③---|
口②口口 |④---|
33
口④口口 |①-②-|
口口⑤③ |③---|
②⑥口口 |④-⑤-|
口口⑦① |⑥-⑦-|
34
①口口① |①---|
口④③口 |②-③-|
口⑥⑤口 |④-⑤-|
口②口口 |⑥---|
35
口②口① |①-②-|
口④⑥③ |③-④-|
口口口口 |⑤---|
⑦口⑤口 |⑥-⑦-|
36
口④口③ |--①-|
口口⑤② |②-③-|
口⑥口① |④-⑤-|
口口⑦口 |⑥-⑦-|
37
①口⑧⑧ |①-②-|
②⑦口口 |③-④-|
③口④⑥ |⑤-⑥-|
口⑤口口 |⑦-⑧-|
38
①口口口 |--①-|
⑤口②④ |②-③-|
口③口口 |④-⑤-|
⑦口口⑥ |⑥-⑦-|
39
④④①① |①---|
口④①口 |②-③-|
②口口口 |----|
口③口口 |④---|
40
口口口口 |①-②-|
口③④口 |----|
口③④① |③---|
口口②口 |④---|
41
④口口④ |①---|
③口口③ |②---|
②口口② |③---|
①口口① |④---|
42
④④④④ |①---|
③③③③ |②---|
②②②② |③---|
①①①① |④---|
43
口口口⑤ |①-②-|
口口⑥口 |③-④-|
①口③口 |----|
口②口④ |⑤-⑥-|
44
口①③口 |①-②-|
②④口口 |----|
口口⑤口 |③-④-|
口⑥口口 |⑤-⑥-|
45
④口⑤⑤ |①-②-|
口口口③ |③-④-|
②口口口 |----|
口口口① |--⑤-|
46
口口口口 |----|
①①口口 |①---|
口口②② |②---|
③③口口 |③---|
47
④④①① |①---|
口④①口 |②-③-|
②口口口 |----|
口③口口 |④---|
48
口口口口 |①-②-|
口口口口 |----|
口口口① |----|
口口②口 |----|
49
口口①① |①---|
口口①口 |②-③-|
②口口口 |----|
口③口口 |----|
50
④④④④ |①---|
口③③口 |②---|
口②②口 |③---|
口①①口 |④---|

accuracy: 99.5%
最終更新:2024年09月08日 17:07