アットウィキロゴ
Be The One
PANDORA feat. Beverly

EXTREME

Level: 7
BPM: 136
Notes: 507

1
口口口口 |----|
口口口口 |----|
口口口口 |----|
口口口口 |----|
2
①口口口 |①---|
口口口② |②---|
③口口口 |③---|
口口口④ |④---|
3
口①③口 |①---|
①②④③ |②---|
②口口④ |③---|
口口口口 |④---|
4
口口口口 |①---|
口②④口 |②---|
②①③④ |③---|
①口口③ |④---|
5
①②④③ |①---|
①②④③ |②---|
口口口口 |③---|
口口口口 |④---|
6
①口口口 |①---|
口口口② |②---|
③口口口 |③---|
口口口④ |④---|
7
口①③口 |①---|
①②④③ |②---|
②口口④ |③---|
口口口口 |④---|
8
口口口口 |①---|
口口口口 |----|
口口口口 |②---|
口①②口 |----|
9
口口口口 |①---|
口③口口 |----|
口口口口 |②---|
①口口② |--③-|
10
⑤口口口 |①---|
④口①口 |②-③-|
②④③口 |④---|
①口口口 |⑤---|
11
⑥口口③ |①---|
④口口口 |②-③-|
②口⑦⑥ |④-⑤-|
①口⑤④ |⑥-⑦-|
12
⑤口口口 |①---|
④口口① |②-③-|
②口口③ |④---|
①口④口 |⑤---|
13
口口①① |①---|
口②②口 |②---|
②口口口
①口口口

④口口口
③⑤口口
口口③③ |③---|
口④④口 |④-⑤-|
14
⑤口口口 |①---|
④口①口 |②-③-|
②④③口 |④---|
①口口口 |⑤---|
15
⑥口口口 |①---|
④口④⑤ |②-③-|
②口⑥⑦ |④-⑤-|
①口口③ |⑥-⑦-|
16
⑤口口③ |①---|
④口④口 |②-③-|
②口⑥口 |④---|
①口①口 |⑤-⑥-|
17
口口口口 |①---|
③口④② |②---|
②口口口 |③---|
①口口① |--④-|
18
口口口⑤ |①---|
口①口④ |②-③-|
口③④② |④---|
口口口① |⑤---|
19
③口口⑥ |①---|
口口口④ |②-③-|
⑥⑦口② |④-⑤-|
④⑤口① |⑥-⑦-|
20
口口口⑤ |①---|
①口口④ |②-③-|
③口口② |④---|
口④口① |⑤---|
21
①①口口 |①---|
口②②口 |②---|
口口口②
口口口①

口口口④
口口⑤③
③③口口 |③---|
口④④口 |④-⑤-|
22
口口口⑤ |①---|
口①口④ |②-③-|
口③④② |④---|
口口口① |⑤---|
23
口口口⑥ |①---|
⑤④口④ |②-③-|
⑦⑥口② |④-⑤-|
③口口① |⑥-⑦-|
24
③口口⑤ |①---|
口④口④ |②-③-|
口口口② |④---|
口①口① |⑤---|
25
口②①口 |①---|
③②①③ |②---|
③③③③ |③---|
①①②② |----|
26
口口口② |①---|
口口口口 |--②-|
口口口口
①口口口

⑨口⑩口
③口口④
⑤口口⑥ |③④⑤⑥⑦⑧⑨-|
⑦⑪⑫⑧ |⑩⑪⑫-|
27
口①口② |①---|
③①①口 |②-③-|
③①①口
③口口口

口⑥口口
口⑥⑥口
口⑥⑥口 |④-⑤-|
口⑤口④ |⑥---|
28
口⑤④① |①-②-|
②④⑤口 |③---|
②⑤④口 |④---|
②口口③ |⑤---|
29
①口②① |①---|
口②口口 |②-③-|
口口口口
口口口③

⑦④口口
口口④口
口口⑥口 |④-⑤-|
⑤口口口 |⑥-⑦-|
30
口口①③ |①-②-|
口口③① |③-④-|
②④口口
④②口口

⑥口口口
⑥口口⑦
口口口⑤ |⑤---|
口口⑤⑤ |⑥-⑦-|
31
口①口② |①---|
③①①口 |②-③-|
③①①口
③③口口

⑤⑥口口
口⑥⑥④
口⑥⑥口 |④-⑤-|
口口口口 |⑥---|
32
口④⑤① |①-②-|
②⑤④③ |③---|
②④⑤口 |④---|
②②口口 |⑤---|
33
口④⑥口 |①-②-|
③⑥④③ |③---|
②口口② |④-⑤-|
①⑤⑦① |⑥-⑦-|
34
①③④① |①---|
①⑤④① |②-③-|
⑤②②⑥ |④-⑤-|
②口⑥② |⑥---|
35
①⑧口① |①-②-|
③口口③ |③-④-|
⑤⑥②⑤ |⑤-⑥-|
⑦口④⑦ |⑦-⑧-|
36
①口①口 |①-②-|
③口③口 |③-④-|
口口口口
口②口④

口口口口
口⑥口口
⑤口⑤口 |⑤-⑥-|
⑦⑧⑦口 |⑦-⑧-|
37
口①口① |①-②-|
口③②③ |③-④-|
口口④口
口口口口

口⑧⑧口
口口口口
⑥⑤口⑤ |⑤-⑥-|
口⑦口⑦ |⑦-⑧-|
38
①口⑧⑥ |①-②-|
③口②③ |③-④-|
⑤口口⑤ |⑤-⑥-|
⑦口④⑦ |⑦-⑧-|
39
口①口③ |①-②-|
④①①口 |③-④-|
④①①②
④口口口

⑥⑦口口
口⑦⑦口
口⑦⑦口 |⑤-⑥-|
口口⑤⑧ |⑦-⑧-|
40
④⑦⑤① |①-②-|
②⑥⑧口 |③-④-|
②⑤⑦口 |⑤-⑥-|
②②③口 |⑦-⑧-|
41
⑬⑮④② |①②③④|
⑤⑦⑫⑩ |⑤⑥⑦⑧|
⑨⑪⑧⑥ |⑨⑩⑪⑫|
①③⑯⑭ |⑬⑭⑮⑯|
42
口口②① |①---|
①口口② |②---|
②口口①
①②口口

口口口④
④③④口
口④③④ |③---|
④口口口 |④---|
43
①⑦②⑥ |①-②-|
口③口④ |③-④-|
口口口口 |⑤---|
⑥⑤③① |⑥-⑦-|
44
口口口口 |①-②-|
②⑤①④ |③---|
⑦口⑥口 |④-⑤-|
⑥④③① |⑥-⑦-|
45
⑦口⑦口 |①-②-|
③口④口 |③-④-|
口①口② |⑤---|
⑥⑤③① |⑥-⑦-|
46
口口口口 |①---|
口②口② |②---|
口口口口
口口②①

口口口口
口口口口
③口口③ |③---|
④③口④ |④---|
47
口①口② |①---|
③①①口 |②-③-|
③①①口
③口口口

口⑤口口
口⑤⑤口
口⑤⑤口 |④---|
口口④口 |⑤---|
48
口口口① |①-②-|
②口口口 |③---|
②口口口
②口③口

⑤口④口
口口口口
口口口⑥ |④-⑤-|
口口⑦口 |⑥-⑦-|
49
口①口② |①---|
③①①口 |②-③-|
③①①口
③③口口

口口口口
口口口口
口⑤口口 |④---|
口口口④ |⑤---|
50
②①口口 |①---|
①①口② |②---|
②口①①
口口①②

口口③④
口④④口
口④④口 |③---|
④③口口 |④---|

accuracy: 99.5%
最終更新:2024年09月08日 17:07