アットウィキロゴ
ふめつのこころ
tofubeats

BASIC

Level: 2
BPM: 180
Notes: 172

1
口口口口 |----|
口口口口 |----|
口口口口 |----|
口口口口 |----|
2
口口口口 |----|
口口口口 |----|
口口口口 |----|
口口口口 |----|
3
口口口口 |①---|
口口口口 |----|
口②①口 |②---|
口口口口 |----|
4
口口口口 |①---|
口口口口 |----|
口口口口 |②---|
口②①口 |----|
5
口口口口 |①---|
口口口口 |----|
口口口口 |②---|
口口②① |----|
6
口口口口 |①---|
口口口口 |----|
口口口口 |②---|
②①口口 |----|
7
口口口口 |①---|
口口口口 |----|
①②口口 |②---|
口口口口 |----|
8
口口口口 |①---|
口口口口 |----|
口口①② |②---|
口口口口 |----|
9
口口口口 |①---|
口口②① |----|
口口口口 |②---|
口口口口 |----|
10
口口口口 |①---|
②①口口 |----|
口口口口 |②---|
口口口口 |----|
11
①②口口 |①---|
口口口口 |----|
口口口口 |②---|
口口口口 |----|
12
口口①口 |①---|
口口②口 |----|
口口口口 |②---|
口口口口 |----|
13
口口口① |①---|
口口口② |----|
口口口口 |②---|
口口口口 |----|
14
口口口口 |①---|
口口口口 |----|
口口口① |②---|
口口口② |----|
15
口口口口 |①---|
口口口口 |----|
口口口口 |②---|
口②①口 |----|
16
口口口口 |①---|
口口口口 |----|
②口口口 |②---|
①口口口 |----|
17
②口口口 |①---|
①口口口 |----|
口口口口 |②---|
口口口口 |----|
18
口口①口 |①---|
口口②口 |----|
口口口口 |②---|
口口口口 |----|
19
口①口口 |①---|
口②口口 |----|
口口口口 |②---|
口口口口 |----|
20
口口口口 |①---|
口口口口 |----|
口①口口 |②---|
口②口口 |----|
21
口口口口 |①---|
口口①口 |----|
口口②口 |②---|
口口口口 |----|
22
口口口口 |①---|
口口口口 |----|
口口口② |②---|
口口①口 |----|
23
口口口② |①---|
口口口① |----|
口口口口 |②---|
口口口口 |----|
24
口②①口 |①---|
口口口口 |----|
口口口口 |②---|
口口口口 |----|
25
①口口口 |①---|
②口口口 |----|
口口口口 |②---|
口口口口 |----|
26
口口口口 |①---|
口口口口 |----|
①口口口 |②---|
②口口口 |----|
27
口口口口 |①---|
口口①口 |----|
口口②口 |②---|
口口口口 |----|
28
口口口口 |①---|
口口口口 |----|
口口口口 |②---|
口②①口 |----|
29
口口口口 |①---|
口②口口 |----|
口①口口 |②---|
口口口口 |----|
30
口①②口 |①---|
口口口口 |----|
口口口口 |②---|
口口口口 |----|
31
口口口① |①---|
口口口② |----|
口口口口 |②---|
口口口口 |----|
32
口口口口 |①---|
口口口口 |----|
口口口① |②---|
口口口② |----|
33
口口口口 |①---|
口②口口 |----|
口口口口 |②---|
口口①口 |----|
34
口口口口 |①---|
口口口口 |----|
口①口口 |②---|
口②口口 |----|
35
口口口口 |①---|
口②口① |----|
口口口口 |②---|
口口口口 |----|
36
口口口口 |①---|
口口口口 |----|
口②口① |②---|
口口口口 |----|
37
口口口口 |①---|
口口口口 |----|
口口口口 |②---|
口②口① |----|
38
口口口口 |①---|
口口①口 |----|
口口②口 |②---|
口口口口 |----|
39
口②口口 |①---|
口口口口 |----|
口口口口 |②---|
口口①口 |----|
40
口口口口 |①---|
口①口口 |----|
口②口口 |②---|
口口口口 |----|
41
口②①口 |①---|
口口口口 |----|
口口口口 |②---|
口口口口 |----|
42
口口口口 |①---|
口①①口 |----|
口②②口 |②---|
口口口口 |----|
43
口口口口 |①---|
口口口口 |----|
口口口口 |②---|
口①①② |----|
44
口口口口 |①---|
口口口口 |----|
口②①口 |②---|
口口口口 |----|
45
口②①口 |①---|
口口口口 |----|
口口口口 |②---|
口口口口 |----|
46
口口口口 |①---|
口①①口 |----|
口②②口 |②---|
口口口口 |----|
47
口口口口 |①---|
口口口口 |----|
口口口口 |②---|
②①①口 |----|
48
口口口口 |①---|
口口口口 |----|
口①②口 |②---|
口口口口 |----|
49
口①②口 |①---|
口口口口 |----|
口口口口 |②---|
口口口口 |----|
50
口口口口 |①---|
口①①口 |----|
口②②口 |②---|
口口口口 |----|
51
口口口口 |①---|
口口口口 |----|
口口口口 |②---|
口①①② |----|
52
口口口口 |①---|
口口口口 |----|
口②①口 |②---|
口口口口 |----|
53
口②①口 |①---|
口口口口 |----|
口口口口 |②---|
口口口口 |----|
54
口口口口 |①---|
口①①口 |----|
口②②口 |②---|
口口口口 |----|
55
口口口口 |①---|
口口口口 |----|
口口口口 |②---|
②①①口 |----|
56
口口口口 |①---|
口口口口 |----|
口①②口 |②---|
口口口口 |----|
57
口①②口 |①---|
口口口口 |----|
口口口口 |②---|
口口口口 |----|
58
口口口口 |①---|
口①①口 |----|
口②②口 |②---|
口口口口 |----|
59
口口口口 |①---|
口口口口 |----|
口口口口 |②---|
口①①② |----|
60
口口口口 |①---|
口口口口 |----|
口②①口 |②---|
口口口口 |----|
61
口②①口 |①---|
口口口口 |----|
口口口口 |②---|
口口口口 |----|
62
口口口口 |①---|
口①①口 |----|
口②②口 |②---|
口口口口 |----|
63
口口口口 |①---|
口口口口 |----|
口口口口 |②---|
②①①口 |----|
64
口口口口 |①---|
口口口口 |----|
口①②口 |②---|
口口口口 |----|
65
口①②口 |①---|
口口口口 |----|
口口口口 |②---|
口口口口 |----|
66
口口口口 |①---|
口①①口 |----|
口②②口 |②---|
口口口口 |----|
67
口口口口 |①---|
口口口口 |----|
口口口口 |②---|
口①①② |----|
68
口口口口 |①---|
口口口口 |----|
口②①口 |②---|
口口口口 |----|
69
口②①口 |①---|
口口口口 |----|
口口口口 |②---|
口口口口 |----|
70
口口口口 |①---|
口①①口 |----|
口②②口 |②---|
口口口口 |----|
71
口口口口 |①---|
口口口口 |----|
口口口口 |②---|
②①①口 |----|
72
口口口口 |①---|
口口口口 |----|
口①②口 |②---|
口口口口 |----|
73
口①②口 |①---|
口口口口 |----|
口口口口 |②---|
口口口口 |----|
74
口口口口 |①---|
口①①口 |----|
口②②口 |②---|
口口口口 |----|
75
口口口口 |①---|
口口口口 |----|
口口口口 |----|
口①①口 |----|

accuracy: 99.5%
最終更新:2024年09月08日 17:14