アットウィキロゴ
ふめつのこころ
tofubeats

ADVANCED

Level: 5
BPM: 180
Notes: 314

1
口口口口 |----|
口口口口 |----|
口口口口 |----|
口口口口 |----|
2
口口口口 |①--②|
口④①⑤ |--③-|
口②⑥口 |--④-|
口口③口 |⑤-⑥-|
3
口①口口 |①---|
⑥口②口 |②---|
口口口口 |③-④-|
口⑤④③ |⑤-⑥-|
4
口④口口 |①---|
口①⑤口 |②---|
口⑥②③ |③-④-|
口口口口 |⑤-⑥-|
5
口口口口 |①---|
③口口口 |--②-|
②口口口 |③---|
口口①④ |④---|
6
口口口口 |①---|
口口①口 |②-③-|
③②口④ |----|
口口口口 |④---|
7
口口①口 |①---|
③②④口 |②-③-|
口⑤口口 |--④-|
口口⑥口 |⑤-⑥-|
8
口口口口 |--①-|
⑥口口口 |②---|
②⑤④口 |③-④-|
①口口③ |⑤-⑥-|
9
口口口口 |①---|
口口口口 |--②-|
③⑥口口 |③-④-|
②①⑤④ |⑤-⑥-|
10
①口口口 |①---|
口②口④ |②---|
口口③口 |③---|
口口口口 |④---|
11
②口口口 |①---|
口口口口 |--②-|
口①口口 |----|
口口③口 |③---|
12
口③口口 |--①-|
②口④口 |②---|
①⑤口口 |--③-|
口口口口 |④-⑤-|
13
口口口口 |①---|
口⑥口口 |--②-|
③口⑤口 |③-④-|
②口①④ |⑤-⑥-|
14
①②口口 |①---|
口口③口 |②---|
口④口口 |③-④-|
口口⑤口 |⑤---|
15
口口口口 |①---|
③口口口 |--②-|
②口口口 |③---|
口①④口 |④---|
16
口②③口 |①---|
口④口口 |②---|
口①⑤口 |③-④-|
口⑥口口 |⑤-⑥-|
17
口口口口 |①-②-|
口口口③ |③---|
口口口②
口口①口

口口口口
口口口口
④口口口 |④---|
口口⑤口 |--⑤-|
18
口②口口 |①---|
口①口口 |----|
口口口口 |②---|
口口口口 |----|
19
口口口口 |①---|
口口③④ |--②-|
口口②口 |--③-|
口①口口 |--④-|
20
口③口口 |----|
口②口口 |①---|
口①口口 |②---|
口口口口 |③---|
21
口口①口 |①---|
口口②口 |----|
口口口③ |②---|
口口口口 |--③-|
22
口口口口 |--①-|
口口口口 |②---|
②口口口 |③---|
①口④③ |④---|
23
口口口口 |①---|
口口口口 |②---|
②③④口 |③---|
口①口口 |④---|
24
④口口口 |①---|
口③②① |②---|
口口口口 |③---|
口口口口 |④---|
25
口口口口 |①---|
口④口口 |②---|
口②③口 |③---|
口口①口 |④---|
26
口口口口 |①---|
⑤④③② |----|
①口口口 |②-③-|
口口口口 |④-⑤-|
27
口口口口 |--①-|
口口口口 |----|
口②口口 |②---|
①口③口 |③---|
28
口②口口 |①---|
口①口口 |----|
口口口口 |②---|
口口口口 |----|
29
口口①口 |①---|
口④口口 |②---|
口口③② |③---|
口口口口 |④---|
30
⑥⑤④③ |①---|
口口口口 |②---|
②口口口 |③-④-|
①口口口 |⑤-⑥-|
31
口口口口 |--①-|
口口口口 |----|
①③口口 |②---|
口口②口 |③---|
32
口口口口 |①---|
②③④口 |②---|
①口口口 |③---|
口口口口 |④---|
33
口③②口 |①---|
④口口① |②---|
口口口口 |③---|
口口口口 |④---|
34
③④⑤⑥ |①---|
口口口口 |②---|
口口②口 |③-④-|
口口①口 |⑤-⑥-|
35
口口口口 |--①-|
口口口口 |----|
口口口① |----|
口口②口 |②---|
36
口②口口 |①---|
口①口口 |----|
口口口口 |②---|
口口口口 |----|
37
口口①② |①---|
口口④③ |②---|
口口口口 |③---|
口口口口 |④---|
38
口口口口 |①---|
②①口口 |②---|
③④口口 |③---|
口口口口 |④---|
39
口口口口 |①---|
口口口口 |----|
口口③口 |②---|
口②①口 |③---|
40
口口口口 |①---|
③口口① |----|
口②口口 |②---|
口口口口 |--③-|
41
①②③④ |①---|
口⑦⑥⑤ |②-③-|
口口口口 |④-⑤-|
口口口口 |⑥-⑦-|
42
口口口口 |①---|
口口口口 |----|
口口①口 |②---|
口②口口 |----|
43
口④③口 |①---|
口⑥⑤② |②---|
①口口① |③-④-|
口口口口 |⑤-⑥-|
44
口口口口 |①---|
④口口口 |②---|
③口①口 |③---|
口②口口 |④---|
45
口口③口 |①---|
④口②口 |②---|
口口口① |③---|
口口口口 |④---|
46
口口口口 |①---|
口①口口 |----|
口口②口 |②---|
口口口口 |----|
47
口②③口 |①---|
口④⑤口 |②---|
①口口① |③---|
口口口口 |④-⑤-|
48
口口口口 |①-②-|
③⑤口④ |③---|
口①②口 |④---|
口口⑥口 |⑤-⑥-|
49
口口口口 |①---|
④⑤⑥⑦ |②-③-|
③②①口 |④-⑤-|
口口口口 |⑥-⑦-|
50
口①口口 |①---|
口口口口 |----|
口口②口 |②---|
口口口口 |----|
51
口④③口 |①---|
口⑥⑤② |②---|
①口口① |③-④-|
口口口口 |⑤-⑥-|
52
口口口口 |①---|
④口口口 |②---|
③口①口 |③---|
口②口口 |④---|
53
口口口口 |①---|
口③②口 |②---|
④口口① |③---|
口口口口 |④---|
54
口口①口 |①---|
口口口口 |----|
口②口口 |②---|
口口口口 |----|
55
口②③口 |①---|
口④⑤口 |②---|
①口口① |③---|
口口口口 |④-⑤-|
56
口口口口 |①-②-|
③⑤口④ |③---|
口①②口 |④---|
口口⑥口 |⑤-⑥-|
57
口口口口 |①---|
⑦⑥⑤④ |②-③-|
口①②③ |④-⑤-|
口口口口 |⑥-⑦-|
58
口口①口 |①---|
口口口口 |----|
口②口口 |②---|
口口口口 |----|
59
口口口口 |①---|
口口④口 |--②-|
①口③① |--③-|
口②口口 |④---|
60
口口口口 |----|
口口②口 |①---|
口①口口 |----|
口口口口 |--②-|
61
口口①口 |①---|
口口④口 |--②-|
口口③口 |--③-|
口②口口 |④---|
62
口①口口 |①---|
口口口口 |----|
口口②口 |②---|
口口口口 |----|
63
口口口口 |①---|
口口④口 |--②-|
①口③① |--③-|
口②口口 |④---|
64
口口口口 |----|
口口口口 |①---|
口①口口 |----|
口口口② |--②-|
65
口口口口 |①---|
④⑤⑥⑦ |②-③-|
③②①口 |④-⑤-|
口口口口 |⑥-⑦-|
66
口①口口 |①---|
口口口口 |----|
口口②口 |②---|
口口口口 |----|
67
口口口口 |①---|
口口④口 |--②-|
①口③① |--③-|
口②口口 |④---|
68
口口口口 |----|
口口②口 |①---|
口①口口 |----|
口口口口 |--②-|
69
口口①口 |①---|
口口口④ |--②-|
口口口③ |--③-|
口②口口 |④---|
70
口口①口 |①---|
口口口口 |----|
口②口口 |②---|
口口口口 |----|
71
口口口口 |①---|
口口④口 |--②-|
①口③① |--③-|
口②口口 |④---|
72
口口口口 |----|
口口口口 |①---|
②①口口 |----|
口口口口 |--②-|
73
⑦⑥⑤④ |①---|
口①②③ |②-③-|
口口口口 |④-⑤-|
口口口口 |⑥-⑦-|
74
口口口口 |①---|
口②②口 |----|
口①①口 |②---|
口口口口 |----|
75
①口口① |①---|
口口口口 |----|
①口口① |----|
口口口口 |----|

accuracy: 99.5%
最終更新:2024年09月08日 17:14