アットウィキロゴ
ふめつのこころ
tofubeats

EXTREME

Level: 7
BPM: 180
Notes: 436

1
口口口口 |----|
口口口口 |----|
口口口口 |----|
口口口口 |----|
2
口口口口 |①--②|
口④①⑤ |--③-|
口②⑥口 |--④-|
口口③口 |⑤-⑥-|
3
①口①口 |①---|
⑥口②口 |②---|
口口口口 |③-④-|
口⑤④③ |⑤-⑥-|
4
④口④口 |①---|
口①⑤③ |②---|
口⑥②② |③-④-|
口口口口 |⑤-⑥-|
5
口口口口 |①---|
③口口口 |--②-|
②口④④ |③---|
①口①口 |④---|
6
口口口口 |①---|
③口①口 |②-③-|
口②口口 |④---|
口⑤④⑤ |⑤---|
7
口口①口 |①---|
口②④口 |②-③-|
③⑤③口 |--④-|
口⑥口⑥ |⑤-⑥-|
8
⑥口⑥口 |--①-|
口③口③ |②---|
②⑤④口 |③-④-|
①口口口 |⑤-⑥-|
9
口③口口 |①---|
口②口口 |--②-|
口⑥口① |③-④-|
口⑤④口 |⑤-⑥-|
10
①④①④ |①---|
口②口口 |②---|
口口③口 |③---|
口口口口 |④---|
11
②口②口 |①---|
口口①口 |--②-|
口口口口 |③---|
口④③口 |④---|
12
口④口口 |--①-|
口口⑤② |②---|
③⑥口① |③-④-|
口口⑥口 |⑤-⑥-|
13
口口口口 |①---|
口口口口 |--②-|
③口口① |③-④-|
②⑥⑤④ |⑤-⑥-|
14
口②口口 |①---|
①口③口 |②---|
口④口口 |③-④-|
口⑤口⑤ |⑤---|
15
口口口口 |①---|
口口口③ |--②-|
④口④② |③---|
①口口口 |④---|
16
口②③口 |①---|
口④①口 |②---|
口口⑤口 |③-④-|
口⑥口口 |⑤-⑥-|
17
口③口③ |①-②-|
口口②口 |③---|
⑤口口口 |④---|
④⑥①⑥ |⑤-⑥-|
18
口口口口 |①---|
②口②口 |----|
口口①③ |②---|
口口口口 |③---|
19
口口口口 |①---|
口③口口 |--②-|
口②口口 |--③-|
①口①④ |--④-|
20
口③口口 |----|
口②口口 |①---|
口①口口 |②---|
口口口口 |③---|
21
①口①口 |①---|
口②口② |----|
③口③口 |②---|
口口口口 |--③-|
22
口口口口 |--①-|
口口口③ |②---|
口②口口 |③---|
口①④③ |④---|
23
口③口口 |①---|
口①口口 |②---|
②③④口 |③---|
口①口口 |④---|
24
④口口口 |①---|
口③②① |②---|
口口口口 |③---|
口③口① |④---|
25
口口口口 |①---|
口④口口 |②---|
③②③口 |③---|
口口①① |④---|
26
①口①口 |①-②-|
⑦⑥⑤④ |③---|
口口口③ |④-⑤-|
口口口② |⑥-⑦-|
27
口口口口 |--①-|
口口口口 |②---|
口④①口 |③-④-|
①③⑤② |⑤---|
28
②口②口 |①---|
口①口口 |----|
口口口口 |②---|
口口口口 |----|
29
口口口口 |①---|
④①④① |②---|
②口②口 |③---|
口③口③ |④---|
30
⑥⑤④口 |①---|
口③口③ |②---|
口口②口 |③-④-|
口口①口 |⑤-⑥-|
31
口口口口 |--①-|
口口②口 |----|
①③①口 |②---|
口口②口 |③---|
32
①口口口 |①---|
②③④口 |②---|
①口口口 |③---|
口③口口 |④---|
33
口③②口 |①---|
口口口① |②---|
口④口④ |③---|
口口口① |④---|
34
口④⑤⑥ |①---|
③口③口 |②---|
口口②口 |③-④-|
口口①口 |⑤-⑥-|
35
口口口口 |--①-|
口①口① |②---|
⑤口④口 |③-④-|
口口②③ |⑤---|
36
口口口口 |①---|
②①②口 |----|
口口口口 |②---|
口口口口 |----|
37
口口①② |①---|
口口④③ |②---|
口口①口 |③---|
口口口③ |④---|
38
③口口口 |①---|
②①口口 |②---|
③④口口 |③---|
口①口口 |④---|
39
口口③口 |①-②-|
口④口口 |③---|
口口②⑤ |④---|
①口①口 |⑤---|
40
口口口口 |①---|
③口③① |----|
口②口口 |②---|
口口口口 |--③-|
41
①②③口 |①---|
口①口口 |②-③-|
口口口口
口口口口

口口口④
口⑦⑥⑤
口口口口 |④-⑤-|
口口口口 |⑥-⑦-|
42
口口口口 |①---|
口口口口 |----|
①口①口 |②---|
口②口② |----|
43
口④③口 |①---|
口⑥⑤② |②---|
口口口① |③-④-|
口口①口 |⑤-⑥-|
44
口口口口 |①---|
④口口口 |②---|
③口①口 |③---|
口②口口 |④---|
45
口③口口 |①---|
④口②口 |②---|
口口口① |③---|
口口口口 |④---|
46
口④口④ |①-②-|
口⑥口口 |③---|
①⑤①③ |④---|
口口口② |⑤-⑥-|
47
④③口口 |①---|
口口②① |②---|
口口①口 |③---|
口⑤口口 |④-⑤-|
48
口口③口 |①-②-|
口②口⑤ |③---|
④口①口 |④---|
口⑥口⑥ |⑤-⑥-|
49
口口口口 |①---|
④⑤⑥⑦ |②-③-|
③②口① |④-⑤-|
口口①口 |⑥-⑦-|
50
口①口① |①-②-|
口口⑤口 |③---|
④③④口 |④---|
口②口口 |⑤---|
51
口④③口 |①---|
口⑥⑤② |②---|
口口口① |③-④-|
口口①口 |⑤-⑥-|
52
口口口口 |①---|
④口口口 |②---|
③口①口 |③---|
口②口口 |④---|
53
口口口口 |①---|
口口②口 |②---|
④③口① |③---|
口口口口 |④---|
54
①口①口 |①-②-|
口④口④ |③---|
⑥口③口 |④---|
⑤口②口 |⑤-⑥-|
55
口口口口 |①---|
②口口口 |②---|
口口口①
口口①口

口口③④
口口口口
口口口口 |③---|
口口⑤口 |④-⑤-|
56
口③口口 |①-②-|
口⑤②口 |③---|
口①口④ |④---|
⑥口⑥口 |⑤-⑥-|
57
口口口口 |①---|
⑦⑥⑤④ |②-③-|
①口②③ |④-⑤-|
口①口口 |⑥-⑦-|
58
①口①口 |①-②-|
口口口口 |③---|
④③④口 |④-⑤-|
口⑤②口 |----|
59
口⑤口口 |①---|
口④口③ |--②-|
口②口① |③-④-|
口口①口 |⑤---|
60
口口口口 |----|
口口③口 |①---|
口①口口 |②---|
口口口② |--③-|
61
口口①口 |①---|
口口④口 |--②-|
口口③口 |--③-|
口②口口 |④---|
62
①口①口 |①-②-|
③④口④ |③---|
②口口口 |④---|
口口口口 |----|
63
口口口口 |①---|
口口口④ |--②-|
①口口③ |--③-|
口①②口 |④---|
64
口口口口 |----|
口口口口 |①---|
口①口口 |②---|
②③口③ |--③-|
65
口口口口 |①---|
④⑤⑥⑦ |②-③-|
③②口① |④-⑤-|
口口①口 |⑥-⑦-|
66
口①口① |①-②-|
口口⑤口 |③---|
口④③④ |④---|
口口②口 |⑤---|
67
口口口口 |①---|
口口⑤口 |--②-|
①口④口 |③-④-|
②①口③ |⑤---|
68
口口口口 |----|
口口③口 |①---|
口①口口 |②---|
②口口口 |--③-|
69
口口①口 |①---|
口口④口 |--②-|
口口③口 |--③-|
②口口口 |④---|
70
①口①口 |①-②-|
口④口④ |③---|
⑥③口口 |④---|
⑤②口口 |⑤-⑥-|
71
口口口口 |①---|
口口⑤口 |--②-|
口口④① |③-④-|
口②①③ |⑤---|
72
口口口口 |----|
口口口口 |①---|
③口③口 |②---|
口①②口 |--③-|
73
⑦⑥⑤④ |①---|
①口②③ |②-③-|
口①口口 |④-⑤-|
口口口口 |⑥-⑦-|
74
口口口口 |①---|
口②②口 |----|
口①①口 |②---|
口口口口 |----|
75
①口口① |①---|
口口口口 |----|
①口口① |----|
口口口口 |----|

accuracy: 99.5%
最終更新:2024年09月08日 17:14