アットウィキロゴ
Boom! Boom! ヘブン
BRADIO

ADVANCED

Level: 4
BPM: 182
Notes: 293

1
口口口口 |----|
口口口口 |----|
口口口口 |----|
口口口口 |----|
2
口口口口 |----|
口口口口 |----|
口口口口 |----|
口口口口 |----|
3
口口口口 |----|
口口口口 |----|
口口口口 |----|
口口口口 |----|
4
口口口口 |①---|
口口①口 |----|
口口口口 |②---|
口②口口 |----|
5
①口口口 |①---|
②口③③ |②---|
口口口口 |--③-|
口口口口 |----|
6
口①口口 |①---|
口②口口 |②---|
口口③③ |--③-|
口口口口 |----|
7
④口口口 |①---|
①口③③ |②---|
②口口口 |--③-|
口口口口 |--④-|
8
口口①口 |----|
口②口口 |①---|
口口③口 |②---|
口口口口 |③---|
9
口口口① |①---|
③③口② |②---|
口口口口 |--③-|
口口口口 |----|
10
口口①口 |①---|
口口②口 |②---|
③③口口 |--③-|
口口口口 |----|
11
口口口④ |①---|
③③口① |②---|
口口口② |--③-|
口口口口 |--④-|
12
口①口口 |----|
口口②口 |①---|
口③口口 |②---|
口口口口 |③---|
13
口口口口 |①---|
④③口口 |②---|
口口②① |③---|
口口口口 |④---|
14
口口①① |①---|
口口口口 |----|
②②口口 |②---|
口口口口 |----|
15
口口口口 |①---|
①②口口 |②---|
口口③④ |③---|
口口口口 |④---|
16
①①口口 |①---|
口口口口 |----|
②②口口 |②---|
口口口口 |----|
17
口口①口 |①---|
口口②口 |②---|
口③口口 |③---|
口④口口 |④---|
18
口口口口 |①---|
①①口口 |----|
口口口口 |②---|
口口②② |----|
19
口口①口 |①---|
②④④口 |--②-|
口口③口 |----|
口口口口 |③-④-|
20
口口口口 |--①-|
口口口② |----|
口口口口 |----|
口①①口 |--②-|
21
口③口口 |--①-|
口口口口 |②---|
①②口口 |③---|
口口④口 |--④-|
22
口口口口 |----|
①口口口 |----|
口口口口 |----|
口口口口 |--①-|
23
口口③口 |--①-|
口口口口 |②---|
口口②① |③---|
口④口口 |--④-|
24
口口口口 |----|
口口口① |----|
口口口口 |----|
口口口口 |--①-|
25
口③口口 |--①-|
口口口口 |②---|
①②口口 |③---|
口口④口 |--④-|
26
口口口口 |----|
①口口口 |----|
口口口口 |----|
口口口口 |--①-|
27
口口③口 |--①-|
口口口口 |②---|
④口②① |③---|
口⑤口口 |④-⑤-|
28
口口口口 |----|
口①①口 |----|
口口口口 |----|
口口口口 |--①-|
29
口口口③ |--①-|
①口口口 |②---|
②④口口 |③---|
口口口口 |④---|
30
口口口口 |①---|
口口①① |②---|
口口口口
口口②②

口口口口
口③③口
口口口口 |----|
口口口口 |--③-|
31
③口口口 |--①-|
口口口① |②---|
口口④② |③---|
口口口口 |④---|
32
口口口口 |①---|
①①口口 |②---|
口口③口 |----|
②②口口 |--③-|
33
口口④④ |①-②-|
口③②口 |③---|
口①⑤⑤ |④---|
口口口口 |⑤---|
34
①①口口 |①---|
口口口口 |②---|
②②口口 |----|
口口口口 |----|
35
口口口口 |①---|
口①①① |--②-|
②②②口 |----|
口③③③ |③---|
36
口①①口 |①---|
③③口口 |--②-|
口②②口 |----|
口口口口 |--③-|
37
④④口口 |--①-|
口口②② |--②-|
口口口口 |--③-|
①①③③ |--④-|
38
口口②⑤ |--①-|
口③口口 |--②-|
①①④口 |③-④-|
口口口口 |--⑤-|
39
②口口口 |----|
口口④④ |①---|
口③口口 |②---|
口①口口 |③-④-|
40
口口口口 |--①-|
④④口口 |----|
②口③口 |②---|
口口①① |③-④-|
41
②②①① |--①-|
口口口口 |--②-|
③③口口 |----|
口口口口 |--③-|
42
口口口口 |--①-|
②②③③ |--②-|
口口①① |--③-|
口口口口 |----|
43
口口口口 |①---|
③③③口 |--②-|
口②②② |----|
①①①口 |③---|
44
③③口① |①---|
口口口口 |--②-|
口口口口 |----|
口②口口 |--③-|
45
口口②② |--①-|
④④口口 |--②-|
①①③③ |--③-|
口口口口 |--④-|
46
口口口口 |--①-|
口口②⑤ |--②-|
口③口口 |③-④-|
①①④口 |--⑤-|
47
口⑤⑤③ |--①-|
①②口口 |②---|
口口口口 |③---|
口口④口 |④-⑤-|
48
口口口口 |--①-|
②③④口 |----|
口①①口 |--②-|
口口口口 |③-④-|
49
①口口口 |--①-|
口口口口 |----|
口④③② |--②-|
口口口口 |③-④-|
50
口口口④ |--①-|
口③②① |②-③-|
口口口口 |--④-|
口口口口 |----|
51
口①口口 |①---|
①②口口 |②---|
②③口口 |③---|
③④口口 |④---|
52
口口口口 |①---|
口②②① |----|
口②②① |②---|
口口口口 |----|
53
①口口口 |①---|
②口③③ |②---|
口口口口 |--③-|
口口口口 |----|
54
口①口口 |①---|
口②口口 |②---|
口口③③ |--③-|
口口口口 |----|
55
④口口口 |①---|
①口③③ |②---|
②口口口 |--③-|
口口口口 |--④-|
56
口口①口 |----|
口②口口 |①---|
口口③口 |②---|
口口口口 |③---|
57
口口口① |①---|
③③口② |②---|
口口口口 |--③-|
口口口口 |----|
58
口口①口 |①---|
口口②口 |②---|
③③口口 |--③-|
口口口口 |----|
59
口口口④ |①---|
③③口① |②---|
口口口② |--③-|
口口口口 |--④-|
60
口①口口 |----|
口口②口 |①---|
口③口口 |②---|
口口口口 |③---|
61
口口口① |①---|
③③口② |②---|
口口口口 |--③-|
口口口口 |----|
62
口口①口 |①---|
口口②口 |②---|
③③口口 |--③-|
口口口口 |----|
63
口口口④ |①---|
③③口① |②---|
口口口② |--③-|
口口口口 |--④-|
64
口①口口 |----|
口口②口 |①---|
口③口口 |②---|
口口口口 |③---|
65
①口口口 |①---|
②口③③ |②---|
口口口口 |--③-|
口口口口 |----|
66
口①口口 |①---|
口②口口 |②---|
口口③③ |--③-|
口口口口 |----|
67
④口口口 |①---|
①口③③ |②---|
②口口口 |--③-|
口口口口 |--④-|
68
口口①口 |----|
口②口口 |①---|
口口③口 |②---|
口口口口 |③---|

accuracy: 99.5%
最終更新:2024年09月08日 17:16