アットウィキロゴ
Boom! Boom! ヘブン
BRADIO

EXTREME

Level: 8
BPM: 182
Notes: 496

1
口口口口 |----|
口口口口 |----|
口口口口 |----|
口口口口 |----|
2
口口口口 |①---|
口口口口 |----|
口①①口 |----|
口口口口 |----|
3
口口口口 |----|
口口口口 |----|
口口口口 |----|
口口口口 |----|
4
口口口口 |①---|
②口口① |②---|
④口口③ |③---|
口口口口 |④---|
5
口口口口 |①-②-|
口①口口 |③-④-|
口③口口
口②口④

⑥口⑤口
口⑥口⑤
口口口口 |--⑤-|
口口口口 |--⑥-|
6
口口口口 |①-②-|
口口①口 |③-④-|
口口③口
④口②口

口⑤口⑥
⑤口⑥口
口口口口 |--⑤-|
口口口口 |--⑥-|
7
口口口口 |①-②-|
口①口口 |③-④-|
口③口口
口②口④

⑥口⑤口
口⑥口⑤
口口口口 |--⑤-|
口口口口 |--⑥-|
8
口口④① |--①-|
口口②⑤ |②-③-|
口③⑥口 |④-⑤-|
口口口⑦ |⑥-⑦-|
9
⑤⑤⑥⑥ |①-②-|
①口口口 |③-④-|
③口口口 |--⑤-|
②口④口 |--⑥-|
10
口口口口 |①-②-|
口⑥⑤① |③-④-|
口⑥⑤③ |--⑤-|
口④口② |--⑥-|
11
⑤⑤⑥⑥ |①-②-|
①口口口 |③-④-|
③口口口 |--⑤-|
②口④口 |--⑥-|
12
④口口口 |--①-|
①⑤口口 |②-③-|
⑥②口口 |④-⑤-|
口⑦③口 |⑥-⑦-|
13
口口⑤口 |①---|
②⑥①① |②-③-|
口口④口 |--④-|
③口口口 |⑤-⑥-|
14
口口口⑤ |①---|
口口①① |②-③-|
②③口④ |--④-|
口口口口 |⑤---|
15
口⑤口口 |①---|
①①⑥② |②-③-|
口④口口 |--④-|
口口口③ |⑤-⑥-|
16
⑥口口口 |①---|
①①口口 |②-③-|
⑤口口口 |④---|
口④③② |⑤-⑥-|
17
口口口① |①---|
⑥②口口 |②-③-|
口③④⑤ |④-⑤-|
口口口口 |--⑥-|
18
口⑤①口 |①---|
口②口① |②-③-|
④口口⑥ |--④-|
口③口口 |⑤-⑥-|
19
③口③口 |①---|
口②⑥⑥ |②-③-|
口⑤①口 |--④-|
④口口口 |⑤-⑥-|
20
②⑥口口 |--①-|
⑥③口口 |--②-|
口口④口 |③-④-|
口①①⑤ |⑤-⑥-|
21
口口口口 |--①-|
口⑤①口 |②-③-|
口②口④ |④---|
⑥口③口 |⑤-⑥-|
22
口③④① |--①-|
口口②④ |--②-|
口口口口 |--③-|
口口口口 |--④-|
23
口口口口 |--①-|
口①⑤口 |②-③-|
④口②口 |④---|
口③口⑥ |⑤-⑥-|
24
①口③口 |--①-|
④②口口 |--②-|
④口口口 |--③-|
口口口口 |--④-|
25
⑤⑥口口 |--①-|
口④④① |②-③-|
口口②口 |④---|
口③口口 |⑤-⑥-|
26
口口口口 |--①-|
口口口④ |--②-|
口口②④ |--③-|
口③口① |--④-|
27
口口⑥⑤ |--①-|
①④④口 |②-③-|
口②口口 |④---|
口口③口 |⑤-⑥-|
28
口④口口 |①---|
①口口② |②---|
④口口口 |③---|
口③③口 |--④-|
29
④口④口 |--①-|
①②③口 |②-③-|
口⑤口⑤ |④---|
口口口口 |⑤---|
30
口⑤⑦口 |①-②-|
口③口① |③-④-|
④口②⑦ |--⑤-|
口口⑥口 |⑥-⑦-|
31
口⑥口④ |--①-|
口③②① |②-③-|
⑦口⑤口 |④-⑤-|
口口口口 |⑥-⑦-|
32
口口⑤口 |①-②-|
①口③⑦ |③-④-|
口②口④ |--⑤-|
口⑥口口 |⑥-⑦-|
33
①口口⑤ |①-②-|
口②⑥口 |③-④-|
口⑦③口 |⑤-⑥-|
⑧口口④ |⑦-⑧-|
34
口②①⑤ |①-②-|
②口口① |③-④-|
④口口③ |--⑤-|
口⑥口口 |⑥---|
35
①①③③ |①---|
①①③③ |--②-|
口口②② |----|
口口②② |③---|
36
口口口口 |①---|
①①口口 |--②-|
①①②②
口口②②

口口口口
③口③口
口口口口 |----|
口口口口 |--③-|
37
口①③口 |--①-|
口②口② |--②-|
④①③口 |--③-|
口④口口 |--④-|
38
口②口口 |--①-|
⑤口③⑤ |--②-|
口④口① |③-④-|
口口①口 |--⑤-|
39
口口⑦⑦ |--①-|
口①④口 |②-③-|
口⑤②口 |④-⑤-|
⑥③口口 |⑥-⑦-|
40
口口口口 |--①-|
口④⑤口 |----|
口口口③ |②-③-|
⑤②①① |④-⑤-|
41
③③④口 |--①-|
②④口口 |--②-|
④①口口 |--③-|
口口②口 |--④-|
42
③口口③ |--①-|
口口②① |--②-|
口②①口 |--③-|
口①口口 |----|
43
口口③③ |①---|
口口③③ |--②-|
②②①① |----|
②②①① |③---|
44
①①口口 |①---|
①①口口 |--②-|
口口②②
口口②②

口口口口
③口③口
口口口口 |----|
口口口口 |--③-|
45
口①③口 |--①-|
④②④② |--②-|
口①③口 |--③-|
口口口口 |--④-|
46
口④⑤口 |--①-|
口口口③ |--②-|
口②口⑤ |③-④-|
①口①口 |--⑤-|
47
⑦⑦⑦口 |--①-|
①②③口 |②-③-|
④口⑥口 |④-⑤-|
口⑤口口 |⑥-⑦-|
48
口口口口 |--①-|
口②口口 |----|
口①③① |--②-|
口口①④ |③-④-|
49
口①①口 |--①-|
口口②① |----|
口③口口 |--②-|
④口口口 |③-④-|
50
口④④口 |--①-|
④①口口 |②-③-|
口口②口 |--④-|
口③口口 |----|
51
①口口② |①---|
口①②口 |②---|
③口口④ |③---|
口③④口 |④---|
52
③①①③ |①---|
①口口① |----|
④口口④ |②--③|
②口口② |--④-|
53
口口口口 |①-②-|
口①口口 |③-④-|
口③口口
口②口④

⑥口⑤口
口⑥口⑤
口口口口 |--⑤-|
口口口口 |--⑥-|
54
口口口口 |①-②-|
口口①口 |③-④-|
口口③口
④口②口

口⑤口⑥
⑤口⑥口
口口口口 |--⑤-|
口口口口 |--⑥-|
55
口口口口 |①-②-|
口①口口 |③-④-|
口③口口
口②口④

⑥口⑤口
口⑥口⑤
口口口口 |--⑤-|
口口口口 |--⑥-|
56
口口④① |--①-|
口口②⑤ |②-③-|
口③⑥口 |④-⑤-|
口口口⑦ |⑥-⑦-|
57
⑤⑤⑥⑥ |①-②-|
①口口口 |③-④-|
③口口口 |--⑤-|
②口④口 |--⑥-|
58
口口口口 |①-②-|
口⑥⑤① |③-④-|
口⑥⑤③ |--⑤-|
口④口② |--⑥-|
59
⑤⑤⑥⑥ |①-②-|
①口口口 |③-④-|
③口口口 |--⑤-|
②口④口 |--⑥-|
60
④口口口 |--①-|
①⑤口口 |②-③-|
⑥②口口 |④-⑤-|
口⑦③口 |⑥-⑦-|
61
口口⑤① |①-②-|
口⑤口③ |③-④-|
口⑥④② |--⑤-|
⑥口口口 |--⑥-|
62
口⑤口① |①-②-|
口口⑤③ |③-④-|
⑥口④② |--⑤-|
口⑥口口 |--⑥-|
63
口⑤口① |①-②-|
⑤口口③ |③-④-|
口⑥④② |--⑤-|
⑥口口口 |--⑥-|
64
口④口⑦ |--①-|
口①⑦① |②-③-|
口口②⑤ |④-⑤-|
⑥③⑤③ |⑥-⑦-|
65
①口⑤口 |①-②-|
③⑤口口 |③-④-|
②④口⑥ |--⑤-|
口口⑥口 |--⑥-|
66
①⑤口口 |①-②-|
③口⑤口 |③-④-|
②④⑥口 |--⑤-|
口口口⑥ |--⑥-|
67
①口口⑤ |①-②-|
③口⑤口 |③-④-|
②④口⑥ |--⑤-|
口口⑥口 |--⑥-|
68
⑤⑤①口 |--①-|
口②⑥⑥ |②-③-|
⑦⑦③口 |④-⑤-|
口④口口 |⑥-⑦-|

accuracy: 99.5%
最終更新:2024年09月08日 17:16