アットウィキロゴ
POP TEAM EPIC
上坂すみれ

BASIC

Level: 2
BPM: 142
Notes: 116

1
口口口口 |----|
口口口口 |----|
口口口口 |----|
口口口口 |----|
2
口口口口 |①---|
口②①口 |----|
口口口口 |②---|
口口口口 |----|
3
口口口口 |①---|
口口口口 |----|
口②①口 |②---|
口口口口 |----|
4
口口口口 |①---|
口口口口 |----|
口口口口 |②---|
口②①口 |----|
5
口口口口 |①---|
口口口口 |----|
口①①口 |----|
口口口口 |----|
6
口口口① |①---|
口口口口 |----|
口口口口 |----|
口口口口 |----|
7
①口口口 |①---|
口口口口 |----|
口口口口 |----|
口口口口 |----|
8
口口口口 |①---|
口口口① |----|
口口口口 |----|
口口口口 |----|
9
口口口口 |①---|
①口口口 |----|
口口口口 |----|
口口口口 |----|
10
口口口口 |①---|
口口口口 |----|
口口口① |----|
口口口口 |----|
11
口口口口 |①---|
口口口口 |----|
①口口口 |----|
口口口口 |----|
12
口口口口 |①---|
口口口口 |----|
口口口口 |----|
口口口① |----|
13
口口口口 |①---|
口口口口 |----|
口口口口 |----|
①口口口 |----|
14
口口口口 |①---|
口口口① |②---|
口口②口 |----|
口口口口 |----|
15
①口口口 |①---|
口口口口 |----|
口口口口 |----|
口口口口 |----|
16
口口口口 |①---|
①口口口 |----|
口口口口 |----|
口口口口 |----|
17
口口口口 |①---|
口口口口 |----|
①口口口 |----|
口口口口 |----|
18
口口口口 |①---|
①口口口 |②---|
口②口口 |----|
口口口口 |----|
19
口口口① |①---|
口口口口 |----|
口口口口 |----|
口口口口 |----|
20
口口口口 |①---|
口口口① |----|
口口口口 |----|
口口口口 |----|
21
口口口口 |①---|
口口口口 |----|
口口口① |----|
口口口口 |----|
22
口口口口 |①---|
口②①口 |----|
口口口口 |②---|
口口口口 |----|
23
口口口口 |①---|
口口口口 |----|
口②①口 |②---|
口口口口 |----|
24
口口口口 |①---|
①口口① |----|
口口口口 |----|
口口口口 |----|
25
口口口口 |①---|
口口口口 |----|
口①①口 |----|
口口口口 |----|
26
口口口口 |①---|
口口②① |----|
口口口口 |②---|
口口口口 |----|
27
口口口口 |①---|
②①口口 |----|
口口口口 |②---|
口口口口 |----|
28
口①①口 |①---|
口口口口 |----|
口口口口 |----|
口口口口 |----|
29
口口口口 |①---|
口口口口 |----|
口①①口 |----|
口口口口 |----|
30
口口①口 |①---|
口②口口 |②---|
口口③口 |③---|
口④口口 |④---|
31
口口口口 |①---|
②口口口 |----|
口口口口 |②---|
口口①口 |----|
32
口①口口 |①---|
口口②口 |②---|
口③口口 |③---|
口口④口 |④---|
33
口口口口 |①---|
口口口② |----|
口口口口 |②---|
口①口口 |----|
34
口口①口 |①---|
口②口口 |②---|
口口③口 |③---|
口④口口 |④---|
35
口口口口 |①---|
②口口口 |----|
口口口口 |②---|
口口①口 |----|
36
口①口口 |①---|
口口②口 |②---|
口③口口 |③---|
口口④口 |④---|
37
口口口口 |①---|
②口口② |----|
口口口口 |②---|
口①口口 |----|
38
口口①口 |①---|
口②口口 |②---|
口口③口 |③---|
口④口口 |④---|
39
口口口口 |①---|
②口口口 |----|
口口口口 |②---|
口口①口 |----|
40
口①口口 |①---|
口口②口 |②---|
口③口口 |③---|
口口④口 |④---|
41
口口口口 |①---|
口口口② |----|
口口口口 |②---|
口①口口 |----|
42
口口①口 |①---|
口②口口 |②---|
口口③口 |③---|
口④口口 |④---|
43
口口口口 |①---|
②口口口 |----|
口口口口 |②---|
口口①口 |----|
44
口①口口 |①---|
口口②口 |②---|
口③口口 |③---|
口口④口 |④---|
45
口②②口 |①---|
口①①口 |----|
口口口口 |②---|
口口口口 |----|
46
①口口① |①---|
口口口口 |----|
口口口口 |----|
口口口口 |----|
47
口口口口 |①---|
口①①口 |----|
口口口口 |----|
口口口口 |----|
48
口口口口 |①---|
①口口① |----|
口口口口 |----|
口口口口 |----|
49
②口口口 |①---|
口口口口 |②---|
口①①口
口口口口

口口口口
口③口口
口口④口 |③---|
口口口口 |④---|
50
口①①口 |①---|
口口口口 |----|
口口口口 |----|
口口口口 |----|
51
①口口① |①---|
口口口口 |----|
口口口口 |----|
口口口口 |----|
52
口口口口 |①---|
口①①口 |----|
口口口口 |----|
口口口口 |----|
53
口口口口 |①---|
①口口① |----|
口口口口 |----|
口口口口 |----|
54
口口口口 |①---|
①口口① |----|
①口口① |----|
口口口口 |----|

accuracy: 99.5%
最終更新:2024年09月08日 17:21