アットウィキロゴ
POP TEAM EPIC
上坂すみれ

ADVANCED

Level: 6
BPM: 142
Notes: 351

1
口口口口 |----|
口口口口 |----|
口口口口 |----|
口口口口 |----|
2
⑥⑥口口 |①---|
③①④① |②--③|
口⑤口口 |-④⑤-|
口口②口 |⑥---|
3
口口③③ |--①-|
②②口⑤ |②---|
④④①① |③-④-|
口口口口 |--⑤-|
4
口口口⑥ |--①-|
③①④口 |②--③|
口⑤口⑦ |-④⑤-|
口口②口 |⑥-⑦-|
5
①①①口 |①---|
口③口口 |②-③-|
②口口口
口口口口

④口口④
④口口④
口口口口 |--④-|
口口口口 |----|
6
口口口口 |①---|
②④①口 |②-③-|
口口口① |--④-|
③⑤口口 |⑤---|
7
②④口④ |①---|
口口①口 |②-③-|
③口口① |--④-|
口口口口 |----|
8
口口口口 |①---|
口①④② |②-③-|
①口口口 |--④-|
口口⑤③ |⑤---|
9
口口口② |①---|
④①口④ |②-③-|
①口口③ |--④-|
口口口口 |----|
10
口口口口 |①---|
口①④② |②-③-|
①口口口 |--④-|
口口⑤③ |⑤---|
11
④口④② |①---|
口①口口 |②-③-|
①口口③ |--④-|
口口口口 |----|
12
口口口口 |①---|
②④①口 |②-③-|
口口口① |--④-|
③⑤口口 |⑤---|
13
②口口口 |①---|
④口①④ |②-③-|
③口口① |--④-|
口口口口 |----|
14
口①①口 |①---|
口口口③ |②---|
④口口口 |--③-|
口②②口 |--④-|
15
②③口口 |①---|
口口④口 |②-③-|
口①⑤口 |--④-|
口口口口 |⑤---|
16
②口口口 |①---|
口①口① |--②-|
口口口口 |--③-|
口口④③ |④---|
17
口口口④ |①---|
口口③口 |②---|
口②口口 |③---|
①口口口 |④---|
18
口①①口 |①---|
③口口口 |②---|
口口口④ |--③-|
口②②口 |--④-|
19
口口③② |①---|
口④口口 |②-③-|
口⑤①口 |--④-|
口口口口 |⑤---|
20
①①口口 |①---|
口口②② |--②-|
③③口口 |----|
口口口口 |③---|
21
④口口口 |①---|
口③口口 |②---|
口口②口 |③---|
口口口① |④---|
22
口口①① |①---|
口口①① |----|
口口②② |②---|
口口②② |----|
23
②②口口 |①---|
②②口口 |----|
①①口口 |②---|
①①口口 |----|
24
②③③① |①---|
④②①④ |----|
口①②口 |②---|
①口口② |③-④-|
25
口口①口 |----|
口②口口 |----|
口口③口 |①-②-|
口④口口 |③-④-|
26
口④③口 |①---|
④②①③ |②---|
②口口① |③---|
口口口口 |④---|
27
口口口口 |①---|
口②①口 |②---|
②④③① |③---|
④口口③ |④---|
28
口②②口 |①---|
①口口① |----|
口③③口 |----|
口口口口 |②-③-|
29
②口口① |----|
口③口口 |--①-|
口口④口 |--②-|
口口口口 |③-④-|
30
③②①口 |①---|
④③②① |②---|
口④③② |③---|
口口④③ |④---|
31
④口口口 |①---|
口⑤口③ |②-③-|
①口⑥口 |--④-|
②①口口 |⑤-⑥-|
32
口口①① |①---|
口口口口 |②-③-|
②③口口
口口口口

口口④口
⑤⑤⑤口
口口口口 |--④-|
口口口口 |--⑤-|
33
②口口口 |--①-|
口口口口 |--②-|
口①①①
口口口口

口口口③
口口④口
口⑤口口 |--③-|
口口口口 |④-⑤-|
34
④①①口 |①---|
口口口口 |--②-|
②④口③ |--③-|
口②③口 |--④-|
35
口④④① |--①-|
②②③③ |--②-|
口口①口 |--③-|
口口口口 |--④-|
36
口口口④ |①---|
口口③口 |②---|
口②口口 |③---|
①口口口 |④---|
37
②口①③ |①---|
口①④① |--②-|
口⑤口口 |--③-|
口口口口 |④-⑤-|
38
口①②③ |①---|
①②③④ |②---|
②③④口 |③---|
③④口口 |④---|
39
口口口④ |①---|
③口⑤口 |②-③-|
口⑥口① |--④-|
口口①② |⑤-⑥-|
40
①①④② |①---|
③口口④ |--②-|
口口口口 |--③-|
口口口口 |--④-|
41
③口口② |--①-|
口④口口 |--②-|
①口⑤口 |--③-|
口①口口 |④-⑤-|
42
口①①④ |①---|
口口口口 |--②-|
③口④② |--③-|
口③②口 |--④-|
43
①④④口 |--①-|
③③②② |--②-|
口①口口 |--③-|
口口口口 |--④-|
44
口②②口 |----|
口口口口 |--①-|
①口口① |②---|
口③③口 |--③-|
45
口口口② |①---|
①③口① |--②-|
口口④口 |--③-|
口口口口 |④---|
46
①口①口 |①---|
口②口② |--②-|
③口③口 |----|
口口口口 |③---|
47
口②口② |--①-|
③口③口 |----|
口口口口 |②---|
口①口① |--③-|
48
口口口口 |----|
口口口口 |①---|
口①口① |--②-|
②口②口 |----|
49
口口③② |①---|
口①①口 |②-③-|
口①①口 |--④-|
④⑤口口 |⑤---|
50
①口③口 |①---|
口②口口 |--②-|
①口③口 |----|
口②口口 |③---|
51
口③口口 |--①-|
②口口① |----|
口③口口 |②---|
②口口① |--③-|
52
口口口② |----|
口口①口 |①---|
口口口② |--②-|
口口①口 |----|
53
口①①口 |①---|
口③③口 |--②-|
口口口口 |----|
口②②口 |③---|
54
口口口口 |①---|
①口口① |----|
①①①① |----|
口口口口 |----|

accuracy: 99.5%
最終更新:2024年09月08日 17:21